Поездка в Америку / Coming to America (Джон Лэндис / John Landis) [1988, США, комедия, HDRip] MVO (ОРТ) + VO (Сука-Падла) + Original Eng

Reply to topic
 
Author
Message

Satyr ®

Gender: Unknown

Longevity: 15 years

Posts: 22031

Reputation: 56 [+] [-]

Satyr · Post 22-Jun-2023 05:10

[Quote] 

Поездка в Америку / Coming to America
Страна: США
Жанр: комедия
Год выпуска: 1988
Продолжительность: 01:56:48
Перевод 1: Профессиональный (многоголосый закадровый) ОРТ
Перевод 2: Одноголосый закадровый Сука-Падла
Субтитры: нет
Оригинальная аудиодорожка: английский
Режиссер: Джон Лэндис / John Landis
В ролях: Эдди Мерфи, Арсенио Холл, Джеймс Эрл Джонс, Джон Эймос, Мэдж Синклер, Шэри Хидли, Пол Бейтс, Эрик Ла Салль, Сэмюэл Л. Джексон, Фрэнки Фэйзон, Ванесса Белл Кэллоуэй
Описание: Наследный принц африканского государства отметив совершеннолетие, решил сам найти себе жену и едет для этого в Америку. Там он представляется обычным человеком и поступает работать в закусочную, так как выбор его пал на дочь хозяина.
Доп. информация: Видеорип сделан с UHD 4k издания.
Аудиодорожка от ОРТ - оцифровка собственной кассеты - впервые на трекере.
Дорожка с переводом Сука-Падла теперь в правильной тональности, соответствующей оригинальной.
Благодарю за помощь dayanat76.
Сэмпл: https://disk.yandex.ru/i/UFOLwKCFNdlEXw
Качество видео: HDRip
Формат видео: AVI
Видео: XviD, 720x400 (16:9), 23,976 fps, ~1890 Kbps
Аудио 1: AC3, 2.0, 48 kHz, 192 kbps - MVO ОРТ (Сергей Быстрицкий, Никита Прозоровский, Светлана Старикова и Наталья Гурзо)
Аудио 2: AC3, 2.0, 48 kHz, 192 kbps - VO Сука-Падла
Аудио 3: AC3, 5.1, 48 kHz, 384 kbps - english
Формат субтитров: softsub (SRT)

MediaInfo

ОбщееПолное имя                               : D:\Torrents\Coming to America [1988 HDRip].aviФормат                                   : AVIФормат/Информация                        : Audio Video InterleaveПрофиль формата                          : OpenDMLРазмер файла                             : 2,19 ГбайтПродолжительность                        : 1 ч. 56 м.Общий поток                              : 2 682 Кбит/секПрограмма кодирования                    : VirtualDubMod 1.5.10.2 (build 2540/release)Библиотека кодирования                   : VirtualDubMod build 2540/release
ВидеоИдентификатор : 0Формат : MPEG-4 VisualПрофиль формата : Advanced Simple@L5Настройки формата : BVOP1Параметр BVOP формата : 1Параметр QPel формата : НетПараметр GMC формата : Без точки переходаПараметр матрицы формата : Default (H.263)Идентификатор кодека : XVIDИдентификатор кодека/Подсказка : XviDПродолжительность : 1 ч. 56 м.Битрейт : 1 890 Кбит/секШирина : 720 пикселейВысота : 400 пикселейСоотношение сторон : 16:9Частота кадров : 23,976 (24000/1001) кадра/секЦветовое пространство : YUVСубдискретизация насыщенности : 4:2:0Битовая глубина : 8 битТип развёртки : ПрогрессивнаяМетод сжатия : С потерямиБит/(Пиксели*Кадры) : 0.274Размер потока : 1,54 Гбайт (70%)Библиотека кодирования : XviD 67
Аудио #1Идентификатор : 1Формат : AC-3Формат/Информация : Audio Coding 3Коммерческое название : Dolby DigitalИдентификатор кодека : 2000Продолжительность : 1 ч. 56 м.Вид битрейта : ПостоянныйБитрейт : 192 Кбит/секКаналы : 2 каналаChannel layout : L RЧастота : 48,0 КГцЧастота кадров : 31,250 кадров/сек (1536 SPF)Метод сжатия : С потерямиРазмер потока : 160 Мбайт (7%)Выравнивание : Разделение по промежуткамПродолжительность промежутка : 42 мс. (1,00 видеокадр)Время предзагрузки промежутка : 500 мс.Service kind : Complete Main
Аудио #2Идентификатор : 2Формат : AC-3Формат/Информация : Audio Coding 3Коммерческое название : Dolby DigitalИдентификатор кодека : 2000Продолжительность : 1 ч. 56 м.Вид битрейта : ПостоянныйБитрейт : 192 Кбит/секКаналы : 2 каналаChannel layout : L RЧастота : 48,0 КГцЧастота кадров : 31,250 кадров/сек (1536 SPF)Метод сжатия : С потерямиРазмер потока : 160 Мбайт (7%)Выравнивание : Разделение по промежуткамПродолжительность промежутка : 42 мс. (1,00 видеокадр)Время предзагрузки промежутка : 500 мс.Service kind : Complete Main
Аудио #3Идентификатор : 3Формат : AC-3Формат/Информация : Audio Coding 3Коммерческое название : Dolby DigitalИдентификатор кодека : 2000Продолжительность : 1 ч. 56 м.Вид битрейта : ПостоянныйБитрейт : 384 Кбит/секКаналы : 6 каналовChannel layout : L R C LFE Ls RsЧастота : 48,0 КГцЧастота кадров : 31,250 кадров/сек (1536 SPF)Метод сжатия : С потерямиРазмер потока : 321 Мбайт (14%)Выравнивание : Разделение по промежуткамПродолжительность промежутка : 42 мс. (1,00 видеокадр)Время предзагрузки промежутка : 500 мс.Service kind : Complete Main

Скриншот c названием фильма

Скриншоты

[Profile]  [PM] 
Display posts:    
Reply to topic

Current time is: 20-Jul 03:45

All times are UTC + 2



You cannot post new topics in this forum
You cannot reply to topics in this forum
You cannot edit your posts in this forum
You cannot delete your posts in this forum
You cannot vote in polls in this forum
You cannot attach files in this forum
You cannot download files in this forum