Дети кукурузы: Беглянка / Children of the Corn: Runaway (Джон Гулагер / John Gulager) [2018, США, ужасы, BDRemux 1080p] VO (Хихикающий Доктор) + Sub Rus, Eng + Original Eng

Reply to topic
 
Author
Message

Faust ®

Gender: Unknown

Longevity: 12 years

Posts: 23187

Reputation: 0 [+] [-]

Faust · Post 22-Jun-2023 09:15

[Quote] 

Дети кукурузы: Беглянка / Children of the Corn: Runaway
Страна: США
Студия: Dimension Films
Жанр: ужасы
Год выпуска: 2018
Продолжительность: 01:22:16
Перевод: Одноголосый закадровый Хихикающий Доктор
Субтитры: русские - полные, английские - Full SDH
Оригинальная аудиодорожка: английский
Режиссер: Джон Гулагер / John Gulager
В ролях: Марсия Миллер, ДжейАр Хэтчетт, Линн Эндрюс III, Джейк Райан Скотт, Молли Никки Андерсон, Лорри Чилкоут, Мэри Кэтрин Брайант, Дэбби Такер
Описание: Рут — единственная выжившая после пожара в печально знаменитой общине детей, поклоняющихся тёмному богу кукурузных полей. На момент своего бегства оттуда Рут была беременна, и с тех пор она многие годы скитается по стране с сыном, пытаясь сбежать от своего прошлого и уберечь мальчика от его влияния. Но, волею судеб застряв в небольшом провинциальном городке, Рут начинает подумывать о том, чтобы задержаться здесь надолго — тем более, что хозяин местной автомастерской даёт ей работу, а одна из официанток становится почти что подругой. Однако от прошлого не сбежишь.
Доп. информация:
- Источник: Children.of.the.Corn.Runaway.2018.BluRay.Remux.1080p.AVC.DTS-HD.MA.5.1-TDD
- Русская дорожка и субтитры с раздачи harry_warden666

Тип релиза: BDRemux 1080p
Контейнер: MKV
Видео: H.264/AVC, 1920x1080, 16:9 (2.341,21:9 Анаморф) , 24.1 MB/s, 23.976 fps
Аудио 1: Русский, DTS, 5.1, 48 kHz, 1510 kbps / VO Хихикающий Доктор
Аудио 2: Английский, DTS HD MA, 5.1, 48.0 kHz, 3564 kbps, 24 bits / Original English*
Формат субтитров: softsub (SRT) / prerendered (Blu Ray/PGS/SUP)
Примечание:
* Core: DTS, 5.1, 48 kHz, 1509 kbps

MediaInfo

GeneralUnique ID                      : 278761251163223802743221410836027218872 (0xD1B776CEEE3BDD1646890FD7724F1BB8)Complete name                  : K:\Children.of.the.Corn.Runaway.2018.1080p.BDREMUX.AVC-Нечипорук.mkvFormat                         : MatroskaFormat version                 : Version 4File size                      : 16.8 GiBDuration                       : 1 h 22 minOverall bit rate mode          : VariableOverall bit rate               : 29.2 Mb/sMovie name                     : Children.of.the.Corn.Runaway.2018.1080p.BDREMUX.AVC-НечипорукEncoded date                   : UTC 2023-06-21 16:39:16Writing application            : mkvmerge v77.0 ('Elemental') 64-bitWriting library                : libebml v1.4.4 + libmatroska v1.7.1
VideoID : 1Format : AVCFormat/Info : Advanced Video CodecFormat profile : High@L4.1Format settings : CABAC / 4 Ref FramesFormat settings, CABAC : YesFormat settings, Reference fra : 4 framesCodec ID : V_MPEG4/ISO/AVCDuration : 1 h 22 minBit rate mode : VariableBit rate : 24.1 Mb/sMaximum bit rate : 38.0 Mb/sWidth : 1 920 pixelsHeight : 1 080 pixelsDisplay aspect ratio : 16:9Frame rate mode : ConstantFrame rate : 23.976 (24000/1001) FPSColor space : YUVChroma subsampling : 4:2:0Bit depth : 8 bitsScan type : ProgressiveBits/(Pixel*Frame) : 0.485Stream size : 13.9 GiB (83%)Title : Children.of.the.Corn.Runaway.2018.1080p.BDREMUX.AVC-НечипорукLanguage : EnglishDefault : YesForced : No
Audio #1ID : 2Format : DTSFormat/Info : Digital Theater SystemsCodec ID : A_DTSDuration : 1 h 22 minBit rate mode : ConstantBit rate : 1 510 kb/sChannel(s) : 6 channelsChannel layout : C L R Ls Rs LFESampling rate : 48.0 kHzFrame rate : 93.750 FPS (512 SPF)Bit depth : 24 bitsCompression mode : LossyStream size : 888 MiB (5%)Title : VO Хихикающий ДокторLanguage : RussianDefault : YesForced : No
Audio #2ID : 3Format : DTS XLLFormat/Info : Digital Theater SystemsCommercial name : DTS-HD Master AudioCodec ID : A_DTSDuration : 1 h 22 minBit rate mode : VariableBit rate : 3 564 kb/sChannel(s) : 6 channelsChannel layout : C L R Ls Rs LFESampling rate : 48.0 kHzFrame rate : 93.750 FPS (512 SPF)Bit depth : 24 bitsCompression mode : LosslessStream size : 2.05 GiB (12%)Title : OriginalLanguage : EnglishDefault : NoForced : No
Text #1ID : 4Format : UTF-8Codec ID : S_TEXT/UTF8Codec ID/Info : UTF-8 Plain TextDuration : 1 h 18 minBit rate : 54 b/sFrame rate : 0.140 FPSCount of elements : 662Stream size : 31.6 KiB (0%)Title : ПолныеLanguage : RussianDefault : NoForced : No
Text #2ID : 5Format : UTF-8Codec ID : S_TEXT/UTF8Codec ID/Info : UTF-8 Plain TextDuration : 1 h 18 minBit rate : 33 b/sFrame rate : 0.140 FPSCount of elements : 664Stream size : 19.3 KiB (0%)Title : Full SDH SRTLanguage : EnglishDefault : NoForced : No
Text #3ID : 6Format : PGSMuxing mode : zlibCodec ID : S_HDMV/PGSCodec ID/Info : Picture based subtitle format used on BDs/HD-DVDsDuration : 1 h 21 minBit rate : 34.9 kb/sFrame rate : 0.357 FPSCount of elements : 1754Stream size : 20.5 MiB (0%)Title : Full SDH PGSLanguage : EnglishDefault : NoForced : No
Text #4ID : 7Format : PGSMuxing mode : zlibCodec ID : S_HDMV/PGSCodec ID/Info : Picture based subtitle format used on BDs/HD-DVDsDuration : 1 h 18 minBit rate : 25.2 kb/sFrame rate : 0.271 FPSCount of elements : 1284Stream size : 14.2 MiB (0%)Title : CompletosLanguage : SpanishDefault : NoForced : No
Menu00:00:00.000 : en:Chapter 100:05:10.018 : en:Chapter 200:10:15.532 : en:Chapter 300:14:30.495 : en:Chapter 400:19:23.537 : en:Chapter 500:25:54.386 : en:Chapter 600:31:35.143 : en:Chapter 700:39:47.093 : en:Chapter 800:46:18.484 : en:Chapter 900:50:34.782 : en:Chapter 1000:55:10.766 : en:Chapter 1100:59:11.131 : en:Chapter 1201:05:29.843 : en:Chapter 1301:11:12.268 : en:Chapter 1401:17:20.386 : en:Chapter 1501:19:25.678 : en:Chapter 16
[Profile]  [PM] 
Display posts:    
Reply to topic

Current time is: 20-Jul 03:45

All times are UTC + 2



You cannot post new topics in this forum
You cannot reply to topics in this forum
You cannot edit your posts in this forum
You cannot delete your posts in this forum
You cannot vote in polls in this forum
You cannot attach files in this forum
You cannot download files in this forum