Восстание зловещих мертвецов / Evil Dead Rise (Ли Кронин / Lee Cronin) [2023, США, ужасы, BDRemux 1080p] 2x Dub + 4x MVO + VO + 2x MVO Ukr + AVO Ukr + Sub Rus, Ukr, Fra, Spa, Eng + Original Eng

Reply to topic
 
Author
Message

Faust ®

Gender: Unknown

Longevity: 12 years

Posts: 23217

Reputation: 0 [+] [-]

Faust · Post 22-Jun-2023 09:15

[Quote] 

Восстание зловещих мертвецов / Evil Dead Rise
Страна: США
Студия: New Line Cinema, Renaissance Pictures, Pacific Renaissance, Wild Atlantic Picture
Жанр: ужасы
Год выпуска: 2023
Продолжительность: 01:36:27
Перевод 01: Профессиональный (дублированный) Bravo Records Georgia / Movie Dubbing
Перевод 02: Любительский (дублированный) Red Head Sound
Перевод 03: Профессиональный (многоголосый закадровый) TVShows
Перевод 04: Профессиональный (многоголосый закадровый) LostFilm
Перевод 05: Профессиональный (многоголосый закадровый) HDRezka Studio
Перевод 06: Любительский (многоголосый закадровый) GoLTFilm
Перевод 07: Одноголосый закадровый Дмитрий Есарёв
Перевод 08: Профессиональный (многоголосый закадровый) DniproFilm
Перевод 09: Профессиональный (многоголосый закадровый) Megogo
Перевод 10: Авторский (одноголосый закадровый) Колодій Трейлерів / Kinofilnya
Субтитры: русские - 2х форс., полные, украинские - форс., полные, английские - Full SDH,
французские, испанские - Full
Оригинальная аудиодорожка: английский
Режиссер: Ли Кронин / Lee Cronin
В ролях: Лили Салливан, Алисса Сазерленд, Габриэль Экхолс, Морган Дэвис, Нелл Фишер, Ной Пол, Марк Митчинсон, Мирабай Пиз, Ричард Краучли, Анна-Мари Томас, Билли Рейнольдс-Маккарти, Таи Вано, Джейден Дэниелс, Мелисса Сяо
Описание: Попав в сложную жизненную ситуацию, Бет приезжает в Лос-Анджелес к старшей сестре Элли. На месте выясняется, что от той ушёл муж, оставив с тремя детьми, и их жилой комплекс скоро снесут, а новый дом ещё не найден. Решив поговорить с сестрой наедине, Элли отправляет детей за пиццей. На обратном пути они переживают землетрясение, на парковке образуется провал, и старший Дэнни находит там древний загадочный том и пластинки. Из любопытства открыв книгу и прослушав записи, мальчик высвобождает злые силы, которые тут же вселяются в его мать
и теперь будут пытаться утащить в ад всех присутствующих, а особенно — детей.
Доп. информация:
- Источник: Evil Dead Rise 2023 BluRay 1080p REMUX AVC Atmos DTS-HD MA 7 1-LEGi0N
- Американское издание от Warner Bros.
- За аудио-дорожки спасибо Andron1975 и Wilmots

Тип релиза: BDRemux 1080p
Контейнер: MKV
Видео: H.264/AVC, 1920x1080, 16:9 (2.388,43:18 Анаморф) , 27.7 MB/s, 23.976 fps
Аудио 01: Русский, AC3, 5.1, 48 kHz, 384 kbps / Dub Bravo Records Georgia / Movie Dubbing
Аудио 02: Русский, AC3, 5.1, 48 kHz, 640 kbps / Dub Red Head Sound
Аудио 03: Русский, E-AC3 with Dolby Atmos, 5.1, 48 kHz, 768 kbps / MVO TVShows
Аудио 04: Русский, E-AC3 with Dolby Atmos, 5.1, 48 kHz, 768 kbps / MVO LostFilm
Аудио 05: Русский, E-AC3 with Dolby Atmos, 5.1, 48 kHz, 768 kbps / MVO HDRezka Studio
Аудио 06: Русский, AC3, 2.0, 48 kHz, 320 kbps / MVO GoLTFilm
Аудио 07: Русский, E-AC3 with Dolby Atmos, 5.1, 48 kHz, 768 kbps / VO Дмитрий Есарёв
Аудио 08: Украинский, E-AC3 with Dolby Atmos, 5.1, 48 kHz, 768 kbps / MVO DniproFilm
Аудио 09: Украинский, AC3, 5.1, 48 kHz, 448 kbps / MVO Megogo
Аудио 10: Украинский, AC3, 2.0, 48 kHz, 192 kbps / AVO Колодій Трейлерів / Kinofilnya
Аудио 11: Английский, TrueHD Atmos, 7.1, 48.0 kHz, 3267 kbps, 24 bits / Original English
Аудио 12: Английский, АС3, 5.1, 48 kHz, 448 kbps / Original English Core
Формат субтитров: softsub (SRT) / prerendered (Blu Ray/PGS/SUP)

MediaInfo

GeneralUnique ID                      : 55833164917969249492830644641406050322 (0x2A0113904BF404DB15820D4E3066E012)Complete name                  : E:\REMUX\Evil.Dead.Rise.2023.1080p.BDREMUX.AVC-Нечипорук.mkvFormat                         : MatroskaFormat version                 : Version 4File size                      : 25.2 GiBDuration                       : 1 h 36 minOverall bit rate mode          : VariableOverall bit rate               : 37.3 Mb/sMovie name                     : Evil.Dead.Rise.2023.1080p.BDREMUX.AVC-НечипорукEncoded date                   : UTC 2023-06-20 22:57:09Writing application            : mkvmerge v77.0 ('Elemental') 64-bitWriting library                : libebml v1.4.4 + libmatroska v1.7.1Cover                          : YesAttachments                    : cover.jpg
VideoID : 1ID in the original source medi : 4113 (0x1011)Format : AVCFormat/Info : Advanced Video CodecFormat profile : High@L4.1Format settings : CABAC / 2 Ref FramesFormat settings, CABAC : YesFormat settings, Reference fra : 2 framesCodec ID : V_MPEG4/ISO/AVCDuration : 1 h 36 minBit rate mode : VariableBit rate : 27.7 Mb/sWidth : 1 920 pixelsHeight : 1 080 pixelsDisplay aspect ratio : 16:9Frame rate mode : ConstantFrame rate : 23.976 (24000/1001) FPSColor space : YUVChroma subsampling : 4:2:0Bit depth : 8 bitsScan type : ProgressiveBits/(Pixel*Frame) : 0.557Stream size : 18.7 GiB (74%)Title : Evil.Dead.Rise.2023.1080p.BDREMUX.AVC-НечипорукLanguage : EnglishDefault : YesForced : NoOriginal source medium : Blu-ray
Audio #1ID : 2Format : AC-3Format/Info : Audio Coding 3Commercial name : Dolby DigitalCodec ID : A_AC3Duration : 1 h 36 minBit rate mode : ConstantBit rate : 384 kb/sChannel(s) : 6 channelsChannel layout : L R C LFE Ls RsSampling rate : 48.0 kHzFrame rate : 31.250 FPS (1536 SPF)Compression mode : LossyStream size : 265 MiB (1%)Title : Дубляж Bravo Records GeorgiaLanguage : RussianService kind : Complete MainDefault : YesForced : No
Audio #2ID : 3Format : AC-3Format/Info : Audio Coding 3Commercial name : Dolby DigitalCodec ID : A_AC3Duration : 1 h 36 minBit rate mode : ConstantBit rate : 640 kb/sChannel(s) : 6 channelsChannel layout : L R C LFE Ls RsSampling rate : 48.0 kHzFrame rate : 31.250 FPS (1536 SPF)Compression mode : LossyStream size : 441 MiB (2%)Title : Дубляж Red Head SoundLanguage : RussianService kind : Complete MainDefault : NoForced : No
Audio #3ID : 4Format : E-AC-3 JOCFormat/Info : Enhanced AC-3 with Joint Object CodingCommercial name : Dolby Digital Plus with Dolby AtmosCodec ID : A_EAC3Duration : 1 h 36 minBit rate mode : ConstantBit rate : 768 kb/sChannel(s) : 6 channelsChannel layout : L R C LFE Ls RsSampling rate : 48.0 kHzFrame rate : 31.250 FPS (1536 SPF)Compression mode : LossyStream size : 530 MiB (2%)Title : MVO TVShowsLanguage : RussianService kind : Complete MainDefault : NoForced : NoComplexity index : 16Number of dynamic objects : 15Bed channel count : 1 channelBed channel configuration : LFE
Audio #4ID : 5Format : E-AC-3 JOCFormat/Info : Enhanced AC-3 with Joint Object CodingCommercial name : Dolby Digital Plus with Dolby AtmosCodec ID : A_EAC3Duration : 1 h 36 minBit rate mode : ConstantBit rate : 768 kb/sChannel(s) : 6 channelsChannel layout : L R C LFE Ls RsSampling rate : 48.0 kHzFrame rate : 31.250 FPS (1536 SPF)Compression mode : LossyStream size : 530 MiB (2%)Title : MVO LostFilmLanguage : RussianService kind : Complete MainDefault : NoForced : NoComplexity index : 16Number of dynamic objects : 15Bed channel count : 1 channelBed channel configuration : LFE
Audio #5ID : 6Format : E-AC-3 JOCFormat/Info : Enhanced AC-3 with Joint Object CodingCommercial name : Dolby Digital Plus with Dolby AtmosCodec ID : A_EAC3Duration : 1 h 36 minBit rate mode : ConstantBit rate : 768 kb/sChannel(s) : 6 channelsChannel layout : L R C LFE Ls RsSampling rate : 48.0 kHzFrame rate : 31.250 FPS (1536 SPF)Compression mode : LossyStream size : 530 MiB (2%)Title : MVO HDRezka StudioLanguage : RussianService kind : Complete MainDefault : NoForced : NoComplexity index : 16Number of dynamic objects : 15Bed channel count : 1 channelBed channel configuration : LFE
Audio #6ID : 7Format : AC-3Format/Info : Audio Coding 3Commercial name : Dolby DigitalCodec ID : A_AC3Duration : 1 h 36 minBit rate mode : ConstantBit rate : 320 kb/sChannel(s) : 2 channelsChannel layout : L RSampling rate : 48.0 kHzFrame rate : 31.250 FPS (1536 SPF)Compression mode : LossyStream size : 221 MiB (1%)Title : MVO GolTFilmLanguage : RussianService kind : Complete MainDefault : NoForced : No
Audio #7ID : 8Format : E-AC-3 JOCFormat/Info : Enhanced AC-3 with Joint Object CodingCommercial name : Dolby Digital Plus with Dolby AtmosCodec ID : A_EAC3Duration : 1 h 36 minBit rate mode : ConstantBit rate : 768 kb/sChannel(s) : 6 channelsChannel layout : L R C LFE Ls RsSampling rate : 48.0 kHzFrame rate : 31.250 FPS (1536 SPF)Compression mode : LossyStream size : 530 MiB (2%)Title : VO Дмитрий ЕсаревLanguage : RussianService kind : Complete MainDefault : NoForced : NoComplexity index : 16Number of dynamic objects : 15Bed channel count : 1 channelBed channel configuration : LFE
Audio #8ID : 9Format : E-AC-3 JOCFormat/Info : Enhanced AC-3 with Joint Object CodingCommercial name : Dolby Digital Plus with Dolby AtmosCodec ID : A_EAC3Duration : 1 h 36 minBit rate mode : ConstantBit rate : 768 kb/sChannel(s) : 6 channelsChannel layout : L R C LFE Ls RsSampling rate : 48.0 kHzFrame rate : 31.250 FPS (1536 SPF)Compression mode : LossyStream size : 530 MiB (2%)Title : MVO DniproFilmLanguage : UkrainianService kind : Complete MainDefault : NoForced : NoComplexity index : 16Number of dynamic objects : 15Bed channel count : 1 channelBed channel configuration : LFE
Audio #9ID : 10Format : AC-3Format/Info : Audio Coding 3Commercial name : Dolby DigitalCodec ID : A_AC3Duration : 1 h 36 minBit rate mode : ConstantBit rate : 448 kb/sChannel(s) : 6 channelsChannel layout : L R C LFE Ls RsSampling rate : 48.0 kHzFrame rate : 31.250 FPS (1536 SPF)Compression mode : LossyStream size : 309 MiB (1%)Title : MVO MegogoLanguage : UkrainianService kind : Complete MainDefault : NoForced : No
Audio #10ID : 11Format : AC-3Format/Info : Audio Coding 3Commercial name : Dolby DigitalCodec ID : A_AC3Duration : 1 h 36 minBit rate mode : ConstantBit rate : 192 kb/sChannel(s) : 2 channelsChannel layout : L RSampling rate : 48.0 kHzFrame rate : 31.250 FPS (1536 SPF)Compression mode : LossyStream size : 132 MiB (1%)Title : AVO Колодій Трейлерів / KinofilnyaLanguage : UkrainianService kind : Complete MainDefault : NoForced : No
Audio #11ID : 12ID in the original source medi : 4352 (0x1100)Format : MLP FBA 16-chFormat/Info : Meridian Lossless Packing FBA with 16-channel presentationCommercial name : Dolby TrueHD with Dolby AtmosCodec ID : A_TRUEHDDuration : 1 h 36 minBit rate mode : VariableBit rate : 3 267 kb/sMaximum bit rate : 6 144 kb/sChannel(s) : 8 channelsChannel layout : L R C LFE Ls Rs Lb RbSampling rate : 48.0 kHzFrame rate : 1 200.000 FPS (40 SPF)Compression mode : LosslessStream size : 2.20 GiB (9%)Title : Original TrueHD 7.1 AtmosLanguage : EnglishDefault : NoForced : NoOriginal source medium : Blu-rayNumber of dynamic objects : 11Bed channel count : 1 channelBed channel configuration : LFE
Audio #12ID : 13ID in the original source medi : 4352 (0x1100)Format : AC-3Format/Info : Audio Coding 3Commercial name : Dolby DigitalCodec ID : A_AC3Duration : 1 h 36 minBit rate mode : ConstantBit rate : 448 kb/sChannel(s) : 6 channelsChannel layout : L R C LFE Ls RsSampling rate : 48.0 kHzFrame rate : 31.250 FPS (1536 SPF)Compression mode : LossyStream size : 309 MiB (1%)Title : Original AC3 5.1 CoreLanguage : EnglishService kind : Complete MainDefault : NoForced : NoOriginal source medium : Blu-ray
Text #1ID : 14Format : UTF-8Codec ID : S_TEXT/UTF8Codec ID/Info : UTF-8 Plain TextDuration : 1 h 0 minBit rate : 1 b/sFrame rate : 0.004 FPSCount of elements : 16Stream size : 535 Bytes (0%)Title : ФорсированныеLanguage : RussianDefault : YesForced : No
Text #2ID : 15Format : UTF-8Codec ID : S_TEXT/UTF8Codec ID/Info : UTF-8 Plain TextDuration : 1 h 26 minBit rate : 3 b/sFrame rate : 0.005 FPSCount of elements : 27Stream size : 1.95 KiB (0%)Title : Форс. для HDRezka StudioLanguage : RussianDefault : NoForced : No
Text #3ID : 16Format : UTF-8Codec ID : S_TEXT/UTF8Codec ID/Info : UTF-8 Plain TextDuration : 1 h 27 minBit rate : 43 b/sFrame rate : 0.120 FPSCount of elements : 635Stream size : 28.2 KiB (0%)Title : Полные misanthropeLanguage : RussianDefault : NoForced : No
Text #4ID : 17Format : UTF-8Codec ID : S_TEXT/UTF8Codec ID/Info : UTF-8 Plain TextDuration : 10 min 32 sBit rate : 1 b/sFrame rate : 0.005 FPSCount of elements : 3Stream size : 129 Bytes (0%)Title : ФорсованiLanguage : UkrainianDefault : NoForced : No
Text #5ID : 18Format : UTF-8Codec ID : S_TEXT/UTF8Codec ID/Info : UTF-8 Plain TextDuration : 1 h 35 minBit rate : 40 b/sFrame rate : 0.111 FPSCount of elements : 636Stream size : 28.0 KiB (0%)Title : Повнi iTunesLanguage : UkrainianDefault : NoForced : No
Text #6ID : 19ID in the original source medi : 4608 (0x1200)Format : PGSMuxing mode : zlibCodec ID : S_HDMV/PGSCodec ID/Info : Picture based subtitle format used on BDs/HD-DVDsDuration : 1 h 36 minBit rate : 23.7 kb/sFrame rate : 0.370 FPSCount of elements : 2136Stream size : 16.3 MiB (0%)Title : Full SDH PGSLanguage : EnglishDefault : NoForced : NoOriginal source medium : Blu-ray
Text #7ID : 20ID in the original source medi : 4609 (0x1201)Format : PGSMuxing mode : zlibCodec ID : S_HDMV/PGSCodec ID/Info : Picture based subtitle format used on BDs/HD-DVDsDuration : 1 h 35 minBit rate : 13.6 kb/sFrame rate : 0.218 FPSCount of elements : 1246Stream size : 9.26 MiB (0%)Title : CompletsLanguage : FrenchDefault : NoForced : NoOriginal source medium : Blu-ray
Text #8ID : 21ID in the original source medi : 4615 (0x1207)Format : PGSMuxing mode : zlibCodec ID : S_HDMV/PGSCodec ID/Info : Picture based subtitle format used on BDs/HD-DVDsDuration : 1 h 35 minBit rate : 15.1 kb/sFrame rate : 0.227 FPSCount of elements : 1296Stream size : 10.3 MiB (0%)Title : CompletosLanguage : SpanishDefault : NoForced : NoOriginal source medium : Blu-ray
Menu00:00:00.000 : en:Chapter 0100:11:02.870 : en:Chapter 0200:21:20.028 : en:Chapter 0300:30:10.350 : en:Chapter 0400:39:46.717 : en:Chapter 0500:50:54.968 : en:Chapter 0601:00:02.140 : en:Chapter 0701:09:21.323 : en:Chapter 0801:18:26.159 : en:Chapter 0901:30:09.904 : en:Chapter 10
[Profile]  [PM] 
Display posts:    
Reply to topic

Current time is: 25-Jul 06:51

All times are UTC + 2



You cannot post new topics in this forum
You cannot reply to topics in this forum
You cannot edit your posts in this forum
You cannot delete your posts in this forum
You cannot vote in polls in this forum
You cannot attach files in this forum
You cannot download files in this forum