Опасная профессия / Le Plus Beau Métier du Monde (Жерар Лозье / Gerard Lauzier) [1996, Франция, комедия, HDTV 1080i] MVO (ТВ Центр) + VO (Мост Медиа) + Sub Fra + Original Fra

Reply to topic
 
Author
Message

Faust ®

Gender: Unknown

Longevity: 12 years

Posts: 23187

Reputation: 0 [+] [-]

Faust · Post 22-Jun-2023 09:15

[Quote] 

Опасная профессия / Le Plus Beau Métier du Monde
Страна: Франция
Жанр: комедия
Год выпуска: 1996
Продолжительность: 01:40:13
Перевод 1: Профессиональный (многоголосый закадровый) ТВ Центр
Перевод 2: Студийный (одноголосый закадровый) Мост Медиа
Субтитры: французские
Оригинальная аудиодорожка: французский
Режиссер: Жерар Лозье / Gerard Lauzier
В ролях: Жерар Депардье, Мишель Ларок, Суад Амиду, Тикки Ольгадо, Ги Маршан, Филипп Хорсан, Дэниэл Прево, Рошди Зем, Файсал Аттиа, Приска Сонго, Оссини Эмбарек, Лоран Жобер, Мишель Пейрелон
Описание: После громкого развода с любимой женой преуспевающему преподавателю истории Лорану Монье приходится устраиваться на работу в один из самых неблагополучных колледжей парижского "дна". Да и квартирку снять в криминальном "цветном" районе поближе к работе. Подростки "дают прикурить" Лорану не только на работе, но и дома, а тут еще и личная жизнь запутывается до крайности. И тогда у скромного историка сдают нервы...
Доп. информация: Аудиодорожка с переводом "ТВ Центр" - оцифровка собственной кассеты - впервые на трекере.
Сэмпл: https://disk.yandex.ru/i/1t4bBxvadYsqRw
Тип релиза: HDTV 1080i
Контейнер: MKV
Видео: AVC, 1920x1080 [16:9], 25 fps, ~8414 kbps
Аудио 1: AC3 2.0 mono, 48 kHz, 192 kbps - MVO к/ст "Фильмэкспорт" по заказу т/к "ТВ Центр"
Аудио 2: AC3 2.0 stereo, 48 kHz, 192 kbps - VO Сергей Кузьмичёв по заказу т/к "Мост Медиа"
Аудио 3: AC3 2.0 stereo, 48 kHz, 192 kbps - французский
Формат субтитров: softsub (SRT)

MediaInfo

ОбщееУникальный идентификатор                 : 308181278358384342508601435103567985404 (0xE7D98E237CC77DD7FC2340334BCEBAFC)Полное имя                               : F:\Le Plus Beau Metier du Monde [HDTV 1080i].mkvФормат                                   : MatroskaВерсия формата                           : Version 4Размер файла                             : 6,29 ГбайтПродолжительность                        : 1 ч. 40 м.Общий поток                              : 8 992 Кбит/секДата кодирования                         : UTC 2023-06-15 05:35:04Программа кодирования                    : mkvmerge v19.0.0 ('Brave Captain') 32-bitБиблиотека кодирования                   : libebml v1.3.5 + libmatroska v1.4.8
ВидеоИдентификатор : 1Формат : AVCФормат/Информация : Advanced Video CodecПрофиль формата : High@L4Настройки формата : CABAC / 4 Ref FramesПараметр CABAC формата : ДаПараметр RefFrames формата : 4 кадраИдентификатор кодека : V_MPEG4/ISO/AVCПродолжительность : 1 ч. 40 м.Битрейт : 8 414 Кбит/секШирина : 1 920 пикселейВысота : 1 080 пикселейСоотношение сторон : 16:9Режим частоты кадров : ПостоянныйЧастота кадров : 25,000 кадров/секСтандарт вещания : ComponentЦветовое пространство : YUVСубдискретизация насыщенности : 4:2:0Битовая глубина : 8 битТип развёртки : ЧересстрочнаяМетод сохранения типа развёртки : Раздельные поляПорядок развёртки : Верхнее поле первоеБит/(Пиксели*Кадры) : 0.162Размер потока : 5,89 Гбайт (94%)Default : НетForced : НетЦветовой диапазон : LimitedОсновные цвета : BT.709Характеристики трансфера : BT.709Коэффициенты матрицы : BT.709
Аудио #1Идентификатор : 2Формат : AC-3Формат/Информация : Audio Coding 3Коммерческое название : Dolby DigitalИдентификатор кодека : A_AC3Продолжительность : 1 ч. 40 м.Вид битрейта : ПостоянныйБитрейт : 192 Кбит/секКаналы : 2 каналаChannel layout : L RЧастота : 48,0 КГцЧастота кадров : 31,250 кадров/сек (1536 SPF)Метод сжатия : С потерямиЗадержка видео : -200 мс.Размер потока : 138 Мбайт (2%)Заголовок : MVO TVCentrЯзык : RussianService kind : Complete MainDefault : ДаForced : Нет
Аудио #2Идентификатор : 3Формат : AC-3Формат/Информация : Audio Coding 3Коммерческое название : Dolby DigitalИдентификатор кодека : A_AC3Продолжительность : 1 ч. 40 м.Вид битрейта : ПостоянныйБитрейт : 192 Кбит/секКаналы : 2 каналаChannel layout : L RЧастота : 48,0 КГцЧастота кадров : 31,250 кадров/сек (1536 SPF)Метод сжатия : С потерямиЗадержка видео : -200 мс.Размер потока : 138 Мбайт (2%)Заголовок : VO Most MediaЯзык : RussianService kind : Complete MainDefault : НетForced : Нет
Аудио #3Идентификатор : 4Формат : AC-3Формат/Информация : Audio Coding 3Коммерческое название : Dolby DigitalИдентификатор кодека : A_AC3Продолжительность : 1 ч. 40 м.Вид битрейта : ПостоянныйБитрейт : 192 Кбит/секКаналы : 2 каналаChannel layout : L RЧастота : 48,0 КГцЧастота кадров : 31,250 кадров/сек (1536 SPF)Метод сжатия : С потерямиЗадержка видео : -200 мс.Размер потока : 138 Мбайт (2%)Язык : FrenchService kind : Complete MainDefault : НетForced : Нет
ТекстИдентификатор : 5Формат : UTF-8Идентификатор кодека : S_TEXT/UTF8Идентификатор кодека/Информация : UTF-8 Plain TextПродолжительность : 1 ч. 37 м.Битрейт : 70 бит/секCount of elements : 1587Размер потока : 50,4 Кбайт (0%)Язык : FrenchDefault : НетForced : Нет

Скриншоты

[Profile]  [PM] 
Display posts:    
Reply to topic

Current time is: 20-Jul 02:04

All times are UTC + 2



You cannot post new topics in this forum
You cannot reply to topics in this forum
You cannot edit your posts in this forum
You cannot delete your posts in this forum
You cannot vote in polls in this forum
You cannot attach files in this forum
You cannot download files in this forum