Арнольд / Arnold / Сезон: 1/ Серии: 1-3 из 3 (Лесли Чилкотт) [2023, документальный, биография, WEBRip 1080p] MVO (LostFilm) + Original + Sub (Rus, Eng, Fra, Spa, Tur)

Reply to topic
 
Author
Message

Atila ®

Gender: Unknown

Longevity: 12 years

Posts: 3267

Reputation: 0 [+] [-]

Atila · Post 22-Jun-2023 09:15

[Quote] 

Арнольд / Arnold
Год выпуска: 2023
Страна: США
Студия: A Defiant Ones Media Group Production, Invented by Girls
Жанр: документальный, биография
Продолжительность: 3 ~ 01:00:00
Перевод: Профессиональный (многоголосый закадровый)
Доп. инфо о переводе: LostFilm
Субтитры: русские (Full), английские (Forced, SDH), французские, испанские, турецкие
Режиссер: Лесли Чилкотт
Описание: Легенда бодибилдинга и звезда голливудских боевиков, губернатор Калифорнии и предприниматель — все эти вехи успеха в будущем ждут простого юношу из австрийской деревушки Таль, потому что он знает, чего хочет от жизни, и совершенно точно уверен, что добьется всего, о чем мечтает. Железный Арни вылепил свою судьбу так же, как некогда вылепил атлетическое тело, вдохновившись образом Рега Парка на экране кинотеатра и на страницах американского журнала о культуризме.
Сэмпл: https://www.sendspace.com/file/eg451j

Тип релиза: WEBRip 1080p
Контейнер: MKV
Видео: MPEG-4 AVC, 7053 Кбит/сек, 1920x1080, 23.976 кадр/сек
Аудио: AC3, 384 Кбит/сек, 2 канала, 48 КГц
Аудио 2: AC3+, 768 Кбит/сек, 6 каналов, 48 КГц
Формат субтитров: softsub (SRT)

Список серий

Эпизод 1 - Part 1: Athlete
Эпизод 2 - Part 2: Actor
Эпизод 3 - Part 3: American

MediaInfo

ОбщееУникальный идентификатор                 : 230872895009458523341251342546867783478 (0xADB0808F2BA6BF587C803EEEB2130736)Полное имя                               : D:\торренты\Арнольд (Arnold) Сезон 1\Арнольд - Arnold S01 E01 (Часть 1 - Атлет) WEBRip 1080p (2023) LostFilm.mkvФормат                                   : MatroskaВерсия формата                           : Version 4Размер файла                             : 3,65 ГбайтПродолжительность                        : 1 ч. 3 м.Режим общего битрейта                    : ПеременныйОбщий поток                              : 8 269 Кбит/секДата кодирования                         : UTC 2023-06-12 00:32:51Программа кодирования                    : mkvmerge v72.0.0 ('Minuano (Six-eight)') 64-bitБиблиотека кодирования                   : libebml v1.4.4 + libmatroska v1.7.1Обложка                                  : YesAttachments                              : Cover - Arnold.jpg
ВидеоИдентификатор : 1Формат : AVCФормат/Информация : Advanced Video CodecПрофиль формата : High@L4Настройки формата : CABAC / 4 Ref FramesПараметр CABAC формата : ДаПараметр RefFrames формата : 4 кадраИдентификатор кодека : V_MPEG4/ISO/AVCПродолжительность : 1 ч. 3 м.Вид битрейта : ПеременныйБитрейт : 7 053 Кбит/секМаксимальный битрейт : 20,0 Мбит/секШирина : 1 920 пикселейВысота : 1 080 пикселейСоотношение сторон : 16:9Режим частоты кадров : ПостоянныйЧастота кадров : 23,976 (24000/1001) кадра/секЦветовое пространство : YUVСубдискретизация насыщенности : 4:2:0Битовая глубина : 8 битТип развёртки : ПрогрессивнаяБит/(Пиксели*Кадры) : 0.142Размер потока : 3,11 Гбайт (85%)Библиотека кодирования : x264 core 148 r2727 7d026e8Настройки программы : cabac=1 / ref=4 / deblock=1:0:0 / analyse=0x3:0x111 / me=umh / subme=10 / psy=1 / psy_rd=1.00:0.00 / mixed_ref=1 / me_range=120 / chroma_me=1 / trellis=2 / 8x8dct=1 / cqm=0 / deadzone=21,11 / fast_pskip=1 / chroma_qp_offset=-2 / threads=8 / lookahead_threads=2 / sliced_threads=0 / nr=0 / decimate=1 / interlaced=0 / bluray_compat=0 / stitchable=1 / constrained_intra=0 / bframes=16 / b_pyramid=2 / b_adapt=2 / b_bias=0 / direct=3 / weightb=1 / open_gop=0 / weightp=2 / keyint=240 / keyint_min=121 / scenecut=0 / intra_refresh=0 / rc_lookahead=240 / rc=crf / mbtree=1 / crf=16.0 / qcomp=0.50 / qpmin=6 / qpmax=51 / qpstep=4 / vbv_maxrate=20000 / vbv_bufsize=25000 / crf_max=0.0 / nal_hrd=vbr / filler=0 / ip_ratio=1.40 / aq=1:0.80Язык : EnglishDefault : ДаForced : Нет
Аудио #1Идентификатор : 2Формат : AC-3Формат/Информация : Audio Coding 3Коммерческое название : Dolby DigitalИдентификатор кодека : A_AC3Продолжительность : 1 ч. 3 м.Вид битрейта : ПостоянныйБитрейт : 448 Кбит/секКаналы : 2 каналаChannel layout : L RЧастота : 48,0 КГцЧастота кадров : 31,250 кадров/сек (1536 SPF)Метод сжатия : С потерямиРазмер потока : 202 Мбайт (5%)Заголовок : LostFilmЯзык : RussianService kind : Complete MainDefault : ДаForced : Нет
Аудио #2Идентификатор : 3Формат : E-AC-3 JOCФормат/Информация : Enhanced AC-3 with Joint Object CodingКоммерческое название : Dolby Digital Plus with Dolby AtmosИдентификатор кодека : A_EAC3Продолжительность : 1 ч. 3 м.Вид битрейта : ПостоянныйБитрейт : 768 Кбит/секКаналы : 6 каналовChannel layout : L R C LFE Ls RsЧастота : 48,0 КГцЧастота кадров : 31,250 кадров/сек (1536 SPF)Метод сжатия : С потерямиРазмер потока : 347 Мбайт (9%)Заголовок : ENGЯзык : EnglishService kind : Complete MainDefault : НетForced : НетComplexity index : 16Number of dynamic objects : 15Bed channel count : 1 каналBed channel configuration : LFE
Текст #1Идентификатор : 4Формат : UTF-8Идентификатор кодека : S_TEXT/UTF8Идентификатор кодека/Информация : UTF-8 Plain TextПродолжительность : 1 ч. 1 м.Битрейт : 122 бит/секCount of elements : 981Размер потока : 55,2 Кбайт (0%)Заголовок : FullЯзык : RussianDefault : НетForced : Нет
Текст #2Идентификатор : 5Формат : UTF-8Идентификатор кодека : S_TEXT/UTF8Идентификатор кодека/Информация : UTF-8 Plain TextПродолжительность : 28 с. 111 мс.Битрейт : 78 бит/секCount of elements : 9Размер потока : 275 байт (0%)Заголовок : English (forced)Язык : EnglishDefault : НетForced : Нет
Текст #3Идентификатор : 6Формат : UTF-8Идентификатор кодека : S_TEXT/UTF8Идентификатор кодека/Информация : UTF-8 Plain TextПродолжительность : 1 ч. 1 м.Битрейт : 87 бит/секCount of elements : 1112Размер потока : 39,4 Кбайт (0%)Заголовок : English (SDH)Язык : EnglishDefault : НетForced : Нет
Текст #4Идентификатор : 7Формат : UTF-8Идентификатор кодека : S_TEXT/UTF8Идентификатор кодека/Информация : UTF-8 Plain TextПродолжительность : 1 ч. 1 м.Битрейт : 80 бит/секCount of elements : 976Размер потока : 36,2 Кбайт (0%)Заголовок : FrenchЯзык : FrenchDefault : НетForced : Нет
Текст #5Идентификатор : 8Формат : UTF-8Идентификатор кодека : S_TEXT/UTF8Идентификатор кодека/Информация : UTF-8 Plain TextПродолжительность : 1 ч. 1 м.Битрейт : 70 бит/секCount of elements : 904Размер потока : 31,5 Кбайт (0%)Заголовок : SpanishЯзык : SpanishDefault : НетForced : Нет
Текст #6Идентификатор : 9Формат : UTF-8Идентификатор кодека : S_TEXT/UTF8Идентификатор кодека/Информация : UTF-8 Plain TextПродолжительность : 1 ч. 1 м.Битрейт : 69 бит/секCount of elements : 942Размер потока : 31,2 Кбайт (0%)Заголовок : European SpanishЯзык : SpanishDefault : НетForced : Нет
Текст #7Идентификатор : 10Формат : UTF-8Идентификатор кодека : S_TEXT/UTF8Идентификатор кодека/Информация : UTF-8 Plain TextПродолжительность : 1 ч. 1 м.Битрейт : 72 бит/секCount of elements : 912Размер потока : 32,6 Кбайт (0%)Заголовок : TurkishЯзык : TurkishDefault : НетForced : Нет

Скриншоты

[Profile]  [PM] 
Display posts:    
Reply to topic

Current time is: 20-Jul 02:03

All times are UTC + 2



You cannot post new topics in this forum
You cannot reply to topics in this forum
You cannot edit your posts in this forum
You cannot delete your posts in this forum
You cannot vote in polls in this forum
You cannot attach files in this forum
You cannot download files in this forum