65 / 65 (Скотт Бек / Scott Beck) [2023, США, Канада, Фантастика, боевик, BDRip 1080p] Dub (MovieDalen) + 2х MVO (Jaskier, TVShows) + Dub (Ukr) + Original (Eng) + Sub (rus, ukr, eng)

Reply to topic
 
Author
Message

Faust ®

Gender: Unknown

Longevity: 12 years

Posts: 23202

Reputation: 0 [+] [-]

Faust · Post 22-Jun-2023 17:50

[Quote] 

65 / 65
65 миллионов лет назад доисторическую Землю посетил гость
Страна: США, Канада
Жанр: Фантастика, боевик
Год выпуска: 2023
Продолжительность: 01:32:42-Перевод 1: Профессиональный (дублированный) MovieDalen
Перевод 2: Профессиональный (многоголосый закадровый) Jaskier
Перевод 3: Профессиональный (многоголосый закадровый) TVShows
Cубтитры: Русские (2x Full), Украинские (Forced, Full), Английские (Full, SDH)
Оригинальная аудиодорожка: Английский-Режиссёр: Скотт Бек / Scott Beck
В ролях: Адам Драйвер, Ариана Гринблатт, Хлоя Коулмэн, Ника Кинг, Брайан Даре
Описание: Чтобы заработать на лечение дочери, семьянин Миллс с планеты Сомарис берётся за разведывательную миссию продолжительностью в два года. В пути его корабль попадает в необозначенный на картах пояс астероидов и терпит крушение, развалившись на части на неизвестной планете. Миллс обнаруживает единственную выжившую из находившихся в криостазе пассажиров, 12-летнюю Коа, а также выясняет, что местность таит смертельную опасность — ведь они оказались на Земле 65 миллионов лет назад. Но шанс на спасение всё же есть, а для этого Миллсу и Коа нужно добраться до спасательного корабля, который застрял на вершине горы.- -Тип релиза: BDRip 1080p
Контейнер: MKV-Видео: AVC/H.264, 1920x804, 16100 Kbps, 23.976 fps
Аудио 1: Русский | E-AC-3, 6 ch, 384 Kbps, 48.0 kHz Dub MovieDalen
Аудио 2: Русский | AC-3, 6 ch, 384 Kbps, 48.0 kHz MVO Jaskier
Аудио 3: Русский | AC-3, 6 ch, 448 Kbps, 48.0 kHz MVO TVShows
Аудио 4: Украинский | AC-3, 6 ch, 448 Kbps, 48.0 kHz Dub
Аудио 5: Английский | E-AC-3, 8.0 ch, 1280 Kbps, 48.0 kHz
Формат субтитров: softsub (SRT)-

MediaInfo

General
Unique ID                                : 107445572872914819077526035426168713858 (0x50D543BE0E68A752F4A189D78102B282)
Complete name                            : /Volumes/Promise Pegasus/65.2023.BDRip.1080p.pk.mkv
Format                                   : Matroska
Format version                           : Version 4
File size                                : 12.3 GiB
Duration                                 : 1 h 32 min
Overall bit rate                         : 19.0 Mb/s
Frame rate                               : 23.976 FPS
Movie name                               : 65 2023 BDRip 1080p pk
Encoded date                             : 2023-05-27 21:08:22 UTC
Writing application                      : mkvmerge v73.0.0 ('25 or 6 to 4') 64-bit
Writing library                          : libebml v1.4.4 + libmatroska v1.7.1
Video
ID                                       : 1
Format                                   : AVC
Format/Info                              : Advanced Video Codec
Format profile                           : High@L4.1
Format settings                          : CABAC / 5 Ref Frames
Format settings, CABAC                   : Yes
Format settings, Reference frames        : 5 frames
Codec ID                                 : V_MPEG4/ISO/AVC
Duration                                 : 1 h 32 min
Bit rate                                 : 16.1 Mb/s
Width                                    : 1 920 pixels
Height                                   : 804 pixels
Display aspect ratio                     : 2.40:1
Frame rate mode                          : Constant
Frame rate                               : 23.976 (24000/1001) FPS
Color space                              : YUV
Chroma subsampling                       : 4:2:0
Bit depth                                : 8 bits
Scan type                                : Progressive
Bits/(Pixel*Frame)                       : 0.434
Stream size                              : 10.4 GiB (84%)
Writing library                          : x264 core 164 r3106+55M encoded by pk5360114 in Russia
Encoding settings                        : cabac=1 / ref=5 / deblock=1:-3:-3 / analyse=0x3:0x133 / me=umh / subme=11 / psy=1 / fade_compensate=0.00 / psy_rd=1.00:0.00 / mixed_ref=1 / me_range=32 / chroma_me=1 / trellis=2 / 8x8dct=1 / cqm=0 / deadzone=21,11 / fast_pskip=0 / chroma_qp_offset=-2 / threads=25 / lookahead_threads=4 / sliced_threads=0 / nr=0 / decimate=0 / interlaced=0 / bluray_compat=0 / constrained_intra=0 / fgo=0 / bframes=9 / b_pyramid=2 / b_adapt=2 / b_bias=0 / direct=3 / weightb=1 / open_gop=0 / weightp=2 / keyint=240 / keyint_min=23 / scenecut=40 / intra_refresh=0 / rc_lookahead=60 / rc=crf / mbtree=0 / crf=15.8000 / qcomp=0.65 / qpmin=0:0:0 / qpmax=69:69:69 / qpstep=4 / vbv_maxrate=62500 / vbv_bufsize=78125 / crf_max=0.0 / nal_hrd=none / filler=0 / ip_ratio=1.30 / pb_ratio=1.20 / aq=3:0.80 / aq-sensitivity=10.00 / aq-factor=1.00:1.00:1.00 / aq2=0 / aq3=0
Language                                 : English
Default                                  : Yes
Forced                                   : No
Color range                              : Limited
Color primaries                          : BT.709
Transfer characteristics                 : BT.709
Matrix coefficients                      : BT.709
Audio #1
ID                                       : 2
Format                                   : E-AC-3
Format/Info                              : Enhanced AC-3
Commercial name                          : Dolby Digital Plus
Codec ID                                 : A_EAC3
Duration                                 : 1 h 32 min
Bit rate mode                            : Constant
Bit rate                                 : 384 kb/s
Channel(s)                               : 6 channels
Channel layout                           : L R C LFE Ls Rs
Sampling rate                            : 48.0 kHz
Frame rate                               : 31.250 FPS (1536 SPF)
Compression mode                         : Lossy
Stream size                              : 255 MiB (2%)
Title                                    : Russian Dub MovieDalen
Language                                 : Russian
Service kind                             : Complete Main
Default                                  : Yes
Forced                                   : No
Audio #2
ID                                       : 3
Format                                   : AC-3
Format/Info                              : Audio Coding 3
Commercial name                          : Dolby Digital
Codec ID                                 : A_AC3
Duration                                 : 1 h 32 min
Bit rate mode                            : Constant
Bit rate                                 : 384 kb/s
Channel(s)                               : 6 channels
Channel layout                           : L R C LFE Ls Rs
Sampling rate                            : 48.0 kHz
Frame rate                               : 31.250 FPS (1536 SPF)
Compression mode                         : Lossy
Stream size                              : 255 MiB (2%)
Title                                    : Russian MVO Jaskier
Language                                 : Russian
Service kind                             : Complete Main
Default                                  : No
Forced                                   : No
Audio #3
ID                                       : 4
Format                                   : AC-3
Format/Info                              : Audio Coding 3
Commercial name                          : Dolby Digital
Codec ID                                 : A_AC3
Duration                                 : 1 h 32 min
Bit rate mode                            : Constant
Bit rate                                 : 448 kb/s
Channel(s)                               : 6 channels
Channel layout                           : L R C LFE Ls Rs
Sampling rate                            : 48.0 kHz
Frame rate                               : 31.250 FPS (1536 SPF)
Compression mode                         : Lossy
Stream size                              : 297 MiB (2%)
Title                                    : Russian MVO TVShows
Language                                 : Russian
Service kind                             : Complete Main
Default                                  : No
Forced                                   : No
Audio #4
ID                                       : 5
Format                                   : AC-3
Format/Info                              : Audio Coding 3
Commercial name                          : Dolby Digital
Codec ID                                 : A_AC3
Duration                                 : 1 h 32 min
Bit rate mode                            : Constant
Bit rate                                 : 448 kb/s
Channel(s)                               : 6 channels
Channel layout                           : L R C LFE Ls Rs
Sampling rate                            : 48.0 kHz
Frame rate                               : 31.250 FPS (1536 SPF)
Compression mode                         : Lossy
Stream size                              : 297 MiB (2%)
Title                                    : Ukrainian Dub
Language                                 : Ukrainian
Service kind                             : Complete Main
Default                                  : No
Forced                                   : No
Audio #5
ID                                       : 6
Format                                   : E-AC-3
Format/Info                              : Enhanced AC-3
Commercial name                          : Dolby Digital Plus
Format profile                           : Blu-ray Disc
Format settings                          : Dolby Surround EX
Codec ID                                 : A_EAC3
Duration                                 : 1 h 32 min
Bit rate mode                            : Constant
Bit rate                                 : 1 280 kb/s
Channel(s)                               : 8 channels
Channel layout                           : L R C LFE Ls Rs Lb Rb
Sampling rate                            : 48.0 kHz
Frame rate                               : 31.250 FPS (1536 SPF)
Compression mode                         : Lossy
Stream size                              : 849 MiB (7%)
Title                                    : English Original
Language                                 : English
Service kind                             : Complete Main
Default                                  : No
Forced                                   : No
Text #1
ID                                       : 7
Format                                   : UTF-8
Codec ID                                 : S_TEXT/UTF8
Codec ID/Info                            : UTF-8 Plain Text
Duration                                 : 1 h 31 min
Bit rate                                 : 22 b/s
Frame rate                               : 0.070 FPS
Count of elements                        : 384
Stream size                              : 15.0 KiB (0%)
Title                                    : Russian full v.1
Language                                 : Russian
Default                                  : No
Forced                                   : No
Text #2
ID                                       : 8
Format                                   : UTF-8
Codec ID                                 : S_TEXT/UTF8
Codec ID/Info                            : UTF-8 Plain Text
Duration                                 : 1 h 24 min
Bit rate                                 : 25 b/s
Frame rate                               : 0.078 FPS
Count of elements                        : 396
Stream size                              : 15.7 KiB (0%)
Title                                    : Russian full v.2
Language                                 : Russian
Default                                  : No
Forced                                   : No
Text #3
ID                                       : 9
Format                                   : UTF-8
Codec ID                                 : S_TEXT/UTF8
Codec ID/Info                            : UTF-8 Plain Text
Duration                                 : 15 min 42 s
Bit rate                                 : 2 b/s
Frame rate                               : 0.007 FPS
Count of elements                        : 7
Stream size                              : 268 Bytes (0%)
Title                                    : Ukrainian forced
Language                                 : Ukrainian
Default                                  : No
Forced                                   : No
Text #4
ID                                       : 10
Format                                   : UTF-8
Codec ID                                 : S_TEXT/UTF8
Codec ID/Info                            : UTF-8 Plain Text
Duration                                 : 1 h 31 min
Bit rate                                 : 21 b/s
Frame rate                               : 0.067 FPS
Count of elements                        : 369
Stream size                              : 14.6 KiB (0%)
Title                                    : Ukrainian full
Language                                 : Ukrainian
Default                                  : No
Forced                                   : No
Text #5
ID                                       : 11
Format                                   : UTF-8
Codec ID                                 : S_TEXT/UTF8
Codec ID/Info                            : UTF-8 Plain Text
Duration                                 : 1 h 22 min
Bit rate                                 : 15 b/s
Frame rate                               : 0.073 FPS
Count of elements                        : 361
Stream size                              : 9.11 KiB (0%)
Title                                    : English full
Language                                 : English
Default                                  : No
Forced                                   : No
Text #6
ID                                       : 12
Format                                   : UTF-8
Codec ID                                 : S_TEXT/UTF8
Codec ID/Info                            : UTF-8 Plain Text
Duration                                 : 1 h 29 min
Bit rate                                 : 20 b/s
Frame rate                               : 0.122 FPS
Count of elements                        : 653
Stream size                              : 13.1 KiB (0%)
Title                                    : English SDH
Language                                 : English
Default                                  : No
Forced                                   : No
Menu
00:00:00.000                             : Chapter 01
00:04:55.879                             : Chapter 02
00:11:46.581                             : Chapter 03
00:16:42.210                             : Chapter 04
00:20:27.518                             : Chapter 05
00:26:56.573                             : Chapter 06
00:31:01.943                             : Chapter 07
00:36:01.534                             : Chapter 08
00:41:30.988                             : Chapter 09
00:46:17.525                             : Chapter 10
00:50:10.758                             : Chapter 11
00:55:04.009                             : Chapter 12
01:02:08.683                             : Chapter 13
01:07:20.578                             : Chapter 14
01:14:33.052                             : Chapter 15
01:23:18.994                             : Chapter 16
01:27:40.005                             : Chapter 17

x264 log

x264 [info]: frame I:947   Avg QP:12.32  size:255104
x264 [info]: frame P:31187 Avg QP:13.30  size:137795
x264 [info]: frame B:101234 Avg QP:14.66  size: 65447
x264 [info]: consecutive B-frames:  3.6%  3.7%  6.1% 27.6% 15.4% 25.6%  8.2%  8.2%  1.5%  0.2%
x264 [info]: kb/s:16056.61

Скриншоты сравнения




Скриншоты

[Profile]  [PM] 
Display posts:    
Reply to topic

Current time is: 21-Jul 20:58

All times are UTC + 2



You cannot post new topics in this forum
You cannot reply to topics in this forum
You cannot edit your posts in this forum
You cannot delete your posts in this forum
You cannot vote in polls in this forum
You cannot attach files in this forum
You cannot download files in this forum