Лоуренс в стране лжецов / Lorenz im Land der Lügner (Юрген Брауэр / Jürgen Brauer) [1997, Германия, Люксембург, семейный, DVDRip] MVO (ViruseProject) + Original Deu

Reply to topic
 
Author
Message

Satyr ®

Gender: Unknown

Longevity: 15 years

Posts: 22031

Reputation: 56 [+] [-]

Satyr · Post 22-Jun-2023 21:55

[Quote] 

Лоуренс в стране лжецов / Lorenz im Land der Lügner
Страна: Германия, Люксембург
Жанр: семейный
Год выпуска: 1997
Продолжительность: 01:20:49
Перевод: Любительский (многоголосый закадровый) ViruseProject
Субтитры: нет
Оригинальная аудиодорожка: немецкий
Режиссер: Юрген Брауэр / Jürgen Brauer
В ролях: Фабиан Оскар Вин, Йохен Буссе, Карстен Дёрр, Пол Хоффманн, Хайнц Хёниг, Пол Хоффманн, Рольф Хоппе, Хольгер Кункель, Генри Лош, Фолькер Прехтель
Описание: По мотивам сказки Джанни Родари «Джельсомино в стране лжецов».
Одиннадцатилетний Лоренц оказывается на странном острове: здесь всё идёт не так. Груши означают яблоки, собаки мяукают, кошки лают, и люди прощаются, надеясь никогда больше не видеть друг друга.
В общем, люди здесь всегда говорят противоположное их действительному мнению, и бунтарское поведение нормального Лоренца в этом смысле вызывает гнев короля, который образует преступную троицу со своим жадным до золота министром и ненасытным коком. Когда Лоренц обнаруживает, что эти трое свергли истинного короля, он намеревается освободить его. Ему помогают в этом не только тетя Марта, учащая кошек мяукать, и её племянница Элиза, а также суматошный старьёвщик, но, прежде всего, мультяшный кот Хинце, который более живой, чем многие другие в Стране лжецов.

Кинопоиск - IMDb
Sample
Качество видео: DVDRip
Формат видео: AVI
Видео: 688x528 (1.30:1), 25 fps, XviD build 73 ~2193 kbps avg, 0.24 bit/pixel
Аудио: Russian (AC3, 2 ch, 192 kbps, 48.0 KHz) - MVO
Аудио 2: German (AC3, 2 ch, 192 kbps, 48.0 KHz) - оригинал

MediaInfo

General
Complete name : W:\Lorenz im Land der Lugner 1997 DVDRip.avi
Format : AVI
Format/Info : Audio Video Interleave
File size : 1.46 GiB
Duration : 1 h 20 min
Overall bit rate : 2 593 kb/s
Writing application : VirtualDubMod 1.5.10.3 | www.virtualdub-fr.org || (build 2550/release)
Writing library : VirtualDubMod build 2550/release
Video
ID : 0
Format : MPEG-4 Visual
Format profile : Advanced Simple@L5
Format settings : BVOP1 / Custom Matrix
Format settings, BVOP : 1
Format settings, QPel : No
Format settings, GMC : No warppoints
Format settings, Matrix : Custom
Codec ID : XVID
Codec ID/Hint : XviD
Duration : 1 h 20 min
Bit rate : 2 195 kb/s
Width : 688 pixels
Height : 528 pixels
Display aspect ratio : 4:3
Frame rate : 25.000 FPS
Color space : YUV
Chroma subsampling : 4:2:0
Bit depth : 8 bits
Scan type : Progressive
Compression mode : Lossy
Bits/(Pixel*Frame) : 0.242
Stream size : 1.24 GiB (85%)
Writing library : XviD 73
Audio #1
ID : 1
Format : AC-3
Format/Info : Audio Coding 3
Codec ID : 2000
Duration : 1 h 20 min
Bit rate mode : Constant
Bit rate : 192 kb/s
Channel(s) : 2 channels
Channel positions : Front: L R
Sampling rate : 48.0 kHz
Frame rate : 31.250 FPS (1536 SPF)
Bit depth : 16 bits
Compression mode : Lossy
Stream size : 111 MiB (7%)
Alignment : Split accross interleaves
Interleave, duration : 40 ms (1.00 video frame)
Interleave, preload duratio : 500 ms
Service kind : Complete Main
Audio #2
ID : 2
Format : AC-3
Format/Info : Audio Coding 3
Codec ID : 2000
Duration : 1 h 20 min
Bit rate mode : Constant
Bit rate : 192 kb/s
Channel(s) : 2 channels
Channel positions : Front: L R
Sampling rate : 48.0 kHz
Frame rate : 31.250 FPS (1536 SPF)
Bit depth : 16 bits
Compression mode : Lossy
Stream size : 111 MiB (7%)
Alignment : Split accross interleaves
Interleave, duration : 40 ms (1.00 video frame)
Interleave, preload duratio : 500 ms
Service kind : Complete Main

Скриншоты


[Profile]  [PM] 
Display posts:    
Reply to topic

Current time is: 20-Jul 02:02

All times are UTC + 2



You cannot post new topics in this forum
You cannot reply to topics in this forum
You cannot edit your posts in this forum
You cannot delete your posts in this forum
You cannot vote in polls in this forum
You cannot attach files in this forum
You cannot download files in this forum