Несуразные каникулы / Szeleburdi vakacio / Szeleburdi vakáció (Дьёрдь Палашти / György Palásthy) [1987, Венгрия, комедия, семейный, WEB-DLRip] VO (Алексей Воленко) + Rus Sub, Hun + Original Hun

Reply to topic
 
Author
Message

Satyr ®

Gender: Unknown

Longevity: 15 years

Posts: 22031

Reputation: 56 [+] [-]

Satyr · Post 22-Jun-2023 21:55

[Quote] 

Несуразные каникулы / Szeleburdi vakacio / Szeleburdi vakáció
Страна: Венгрия
Жанр: комедия, семейный
Год выпуска: 1987
Продолжительность: 01:09:58
Перевод: Одноголосый закадровый Алексей Воленко
Субтитры: русские (krisz_tiffany), венгерские
Оригинальная аудиодорожка: венгерский
Режиссер: Дьёрдь Палашти / György Palásthy
В ролях: Миклош Бенедек, Мари Кишш, Ида Тюраи, Жужа Золнаи, Дьёрдь Миклошши, Тери Тордаи, Петер Балаж, Габриэлла Борбаш, Аттила Лете, Эржи Пастор, Йожеф Фоньо, Мари Саймон, Иштван Веленцеи, Иштван О. Сабо, Золтан Ратоти, Иштван Цилагай, Хуго Серенчи, Ласло Хорват, Флора Кадар
Описание: Мама, папа и несколько детей живут в маленьком домике и всем вместе им не то что бы тесно, но суеты хватает. Впрочем, жили они так не тужили пока не узнали в один прекрасный день, что получили в наследство яхту. Быстро посовещавшись, они отправляются к морю, где и находят свою большую, довольно ветхую лодку и решают ее отремонтировать. Но неожиданно их усилия натыкаются на сопротивление шайки местных хулиганов, которые облюбовали эту посудину для своих игр в пиратов. Проблемы накапливаются...
Доп. информация: Организация перевода и озвучания - sergeyk888, исходник для рипа - Johnnyleo и zaq-293, сведение звука - zaq-293.
Кинопоиск - IMDb
Sample
Качество видео: WEB-DLRip
Формат видео: AVI
Видео: 720x432 (1.67:1), 25 fps, XviD build 73 ~2353 kbps avg, 0.30 bit/pixel
Аудио: Russian (AC3, 2 ch, 224 kbps, 48.0 KHz) - VO
Аудио 2: Hungarian (AC3, 2 ch, 192 kbps, 48.0 KHz) - оригинал
Формат субтитров: softsub (SRT)

MediaInfo

General
Complete name : W:\Szeleburdi vakacio 1987 WEB-DLRip.avi
Format : AVI
Format/Info : Audio Video Interleave
File size : 1.36 GiB
Duration : 1 h 9 min
Overall bit rate : 2 785 kb/s
Writing application : VirtualDubMod 1.5.10.3 | www.virtualdub-fr.org || (build 2550/release)
Writing library : VirtualDubMod build 2550/release
Video
ID : 0
Format : MPEG-4 Visual
Format profile : Advanced Simple@L5
Format settings : BVOP1 / Custom Matrix
Format settings, BVOP : 1
Format settings, QPel : No
Format settings, GMC : No warppoints
Format settings, Matrix : Custom
Codec ID : XVID
Codec ID/Hint : XviD
Duration : 1 h 9 min
Bit rate : 2 355 kb/s
Width : 720 pixels
Height : 432 pixels
Display aspect ratio : 5:3
Frame rate : 25.000 FPS
Color space : YUV
Chroma subsampling : 4:2:0
Bit depth : 8 bits
Scan type : Progressive
Compression mode : Lossy
Bits/(Pixel*Frame) : 0.303
Stream size : 1.15 GiB (85%)
Writing library : XviD 73
Audio #1
ID : 1
Format : AC-3
Format/Info : Audio Coding 3
Codec ID : 2000
Duration : 1 h 9 min
Bit rate mode : Constant
Bit rate : 224 kb/s
Channel(s) : 2 channels
Channel positions : Front: L R
Sampling rate : 48.0 kHz
Frame rate : 31.250 FPS (1536 SPF)
Bit depth : 16 bits
Compression mode : Lossy
Stream size : 112 MiB (8%)
Alignment : Split accross interleaves
Interleave, duration : 40 ms (1.00 video frame)
Interleave, preload duratio : 500 ms
Service kind : Complete Main
Audio #2
ID : 2
Format : AC-3
Format/Info : Audio Coding 3
Codec ID : 2000
Duration : 1 h 9 min
Bit rate mode : Constant
Bit rate : 192 kb/s
Channel(s) : 2 channels
Channel positions : Front: L R
Sampling rate : 48.0 kHz
Frame rate : 31.250 FPS (1536 SPF)
Bit depth : 16 bits
Compression mode : Lossy
Stream size : 96.1 MiB (7%)
Alignment : Split accross interleaves
Interleave, duration : 40 ms (1.00 video frame)
Interleave, preload duratio : 500 ms
Service kind : Complete Main

Скриншоты


[Profile]  [PM] 
Display posts:    
Reply to topic

Current time is: 20-Jul 02:02

All times are UTC + 2



You cannot post new topics in this forum
You cannot reply to topics in this forum
You cannot edit your posts in this forum
You cannot delete your posts in this forum
You cannot vote in polls in this forum
You cannot attach files in this forum
You cannot download files in this forum