Я не говорю по-английски / Io no spik inglish (Карло Ванцина / Carlo Vanzina) [1995, Италия, комедия, DVDRip-AVC] MVO (Intra Communications) + Sub Ita + Original Ita

Reply to topic
 
Author
Message

Satyr ®

Gender: Unknown

Longevity: 15 years

Posts: 22031

Reputation: 56 [+] [-]

Satyr · Post 22-Jun-2023 21:55

[Quote] 

Я не говорю по-английски / Io no spik inglish
Страна: Италия
Жанр: комедия
Год выпуска: 1995
Продолжительность: 01:29:39
Перевод: Профессиональный (многоголосый закадровый) Intra Communications
Субтитры: итальянские
Оригинальная аудиодорожка: итальянский
Режиссер: Карло Ванцина / Carlo Vanzina
В ролях: Паоло Вилладжо, Паола Кваттрини, Йен Прайс, Кэролин Пиклз, Марио Бьянко, Маттео Донди, Мауро Ла Джилья, Маурицио Марсала, Маттео Пагано, Лаура Мльяччи...
Описание: Серджио Коломбо - руководитель небольшого страхового агентства в Италии. Его спокойная провинциальная жизнь круто изменилась от сообщения о том, что крупная английская фондовая компания приобрела в собственность его страховое агентство. Отныне нашему герою предстоит общаться только на английском языке, о котором Серджио имеет весьма смутное представление. Теперь у него только два пути: либо ему предстоит выучить английский язык, либо он уволен.
В Оксфорде, где ему предстоит пройти курс обучения, Серджио оказывается единственным студентом столь преклонного возраста, т.к. все его одноклассники - это подростки! И более того их преподаватель отдает предпочтение молодым мужчинам, а его жена отдала предпочтение Серджио! Наш герой попадает в водоворот невероятных комических ситуаций и уморительных розыгрышей, из которых он всегда выходит победителем, даже из постели симпатичной студентки.
Сэмпл: http://sendfile.su/1670388
Качество видео: DVDRip-AVC
Формат видео: MKV
Видео: 718x554 (1.85:1) @ 1022x554, 25.000 fps, AVC, ~1938 Kbps, 0.195 bits/pixel
Аудио 1: Russian, 48.0 KHz, AC3, 2 ch, 192 Kbps - Intra Communications
Аудио 2: Italian, 48.0 KHz, AC3, 2 ch, 192 Kbps

MediaInfo

GeneralUnique ID                   : 167271984445117216268777638394416489886 (0x7DD7699114709374539DCEECD796659E)Complete name               : E:\Io no spik inglish.mkvFormat                      : MatroskaFormat version              : Version 4File size                   : 1.46 GiBDuration                    : 1 h 29 minOverall bit rate            : 2 324 kb/sEncoded date                : UTC 2023-06-21 07:11:28Writing application         : mkvmerge v44.0.0 ('Domino') 64-bitWriting library             : libebml v1.3.10 + libmatroska v1.5.2
VideoID : 1Format : AVCFormat/Info : Advanced Video CodecFormat profile : High@L4.1Format settings : CABAC / 9 Ref FramesFormat settings, CABAC : YesFormat settings, Reference : 9 framesCodec ID : V_MPEG4/ISO/AVCDuration : 1 h 29 minBit rate : 1 938 kb/sWidth : 718 pixelsHeight : 554 pixelsDisplay aspect ratio : 1.85:1Frame rate mode : ConstantFrame rate : 25.000 FPSColor space : YUVChroma subsampling : 4:2:0Bit depth : 8 bitsScan type : ProgressiveBits/(Pixel*Frame) : 0.195Stream size : 1.21 GiB (83%)Writing library : x264 core 164 r3106 eaa68faEncoding settings : cabac=1 / ref=9 / deblock=1:-1:-1 / analyse=0x3:0x113 / me=umh / subme=10 / psy=1 / psy_rd=1.00:0.00 / mixed_ref=1 / me_range=32 / chroma_me=1 / trellis=2 / 8x8dct=1 / cqm=0 / deadzone=21,11 / fast_pskip=0 / chroma_qp_offset=-2 / threads=6 / lookahead_threads=1 / sliced_threads=0 / nr=0 / decimate=0 / interlaced=0 / bluray_compat=0 / constrained_intra=0 / bframes=10 / b_pyramid=2 / b_adapt=2 / b_bias=0 / direct=3 / weightb=1 / open_gop=0 / weightp=2 / keyint=250 / keyint_min=25 / scenecut=40 / intra_refresh=0 / rc_lookahead=40 / rc=2pass / mbtree=0 / bitrate=1938 / ratetol=1.0 / qcomp=0.60 / qpmin=0 / qpmax=69 / qpstep=4 / cplxblur=20.0 / qblur=0.5 / vbv_maxrate=50000 / vbv_bufsize=62500 / nal_hrd=none / filler=0 / ip_ratio=1.40 / pb_ratio=1.30 / aq=1:1.00Language : ItalianDefault : YesForced : No
Audio #1ID : 2Format : AC-3Format/Info : Audio Coding 3Commercial name : Dolby DigitalCodec ID : A_AC3Duration : 1 h 29 minBit rate mode : ConstantBit rate : 192 kb/sChannel(s) : 2 channelsChannel layout : L RSampling rate : 48.0 kHzFrame rate : 31.250 FPS (1536 SPF)Compression mode : LossyStream size : 123 MiB (8%)Title : Intra CommunicationsLanguage : RussianService kind : Complete MainDefault : YesForced : No
Audio #2ID : 3Format : AC-3Format/Info : Audio Coding 3Commercial name : Dolby DigitalCodec ID : A_AC3Duration : 1 h 29 minBit rate mode : ConstantBit rate : 192 kb/sChannel(s) : 2 channelsChannel layout : L RSampling rate : 48.0 kHzFrame rate : 31.250 FPS (1536 SPF)Compression mode : LossyStream size : 123 MiB (8%)Language : ItalianService kind : Complete MainDefault : NoForced : No
TextID : 4Format : UTF-8Codec ID : S_TEXT/UTF8Codec ID/Info : UTF-8 Plain TextDuration : 1 h 27 minBit rate : 52 b/sCount of elements : 912Stream size : 34.0 KiB (0%)Language : ItalianDefault : NoForced : No
Menu00:00:00.000 : it:01. Inizio film00:06:32.920 : it:02. Una nuova organizzazione00:13:49.600 : it:03. Costretto ad imparare00:19:29.160 : it:04. Benvenuto ad Oxford00:26:31.440 : it:05. Primo giorno di scuola00:33:32.080 : it:06. Giorno libero00:39:17.280 : it:07. Sergio e Giovannino00:44:20.480 : it:08. Visita al college00:51:41.200 : it:09. Gita a Londra00:57:31.520 : it:10. Al night club01:03:20.560 : it:11. Incontro causale01:09:14.360 : it:12. Un incontro galante01:14:09.400 : it:13. La verità è un'altra01:19:50.960 : it:14. Partenza01:22:51.320 : it:15. In famigli01:27:09.320 : it:16. Titoli di coda

Скриншоты

[Profile]  [PM] 
Display posts:    
Reply to topic

Current time is: 20-Jul 02:01

All times are UTC + 2



You cannot post new topics in this forum
You cannot reply to topics in this forum
You cannot edit your posts in this forum
You cannot delete your posts in this forum
You cannot vote in polls in this forum
You cannot attach files in this forum
You cannot download files in this forum