Переводчик / The Covenant (Гай Ричи / Guy Ritchie) [2022, Великобритания, Испания, США, Боевик, триллер, военный, BDRemux 1080p] Dub (Мосфильм-Мастер) + 2x MVO + DVO (Кубик в Кубе) + AVO (Ю. Сербин) + MVO (Ukr) + Sub (rus, eng)

Reply to topic
 
Author
Message

Faust ®

Gender: Unknown

Longevity: 12 years

Posts: 23217

Reputation: 0 [+] [-]

Faust · Post 23-Jun-2023 06:10

[Quote] 

Переводчик / The Covenant
Страна: Великобритания, Испания, США
Жанр: Боевик, триллер, военный, история, драма
Год выпуска: 2022
Продолжительность: 02:03:03-Перевод 1: Профессиональный (дублированный) | Мосфильм-Мастер
Перевод 2: Профессиональный (многоголосый закадровый) HDRezka Studio
Перевод 3: Профессиональный (двухголосый закадровый) - Кубик в Кубе 18+
Перевод 4: Профессиональный (многоголосый закадровый) TVShows
Перевод 5: Авторский (одноголосый закадровый) Юрий Сербин
Cубтитры: Русские (2x Forced, 2x Full, SDH), Украинские (Forced), Английские (Forced, Full, SDH)
Оригинальная аудиодорожка: Английский-Режиссёр: Гай Ричи / Guy Ritchie
В ролях: Джейк Джилленхол, Дар Салим, Шон Сагар, Джейсон Вонг, Риз Йэтс, Кристиан Очоа, Бобби Шофилд, Эмили Бичем, Джонни Ли Миллер, Александр Людвиг
Описание: Афганистан, март 2018 года. Во время спецоперации по поиску оружия талибов отряд сержанта армии США Джона Кинли попадает в засаду. В живых остаются только сам Джон, получивший ранение, и местный переводчик Ахмед, который сотрудничает с американцами. Очнувшись на родине, Кинли не помнит, как ему удалось выжить, но понимает, что именно Ахмед спас ему жизнь, протащив на себе через опасную территорию. Теперь чувство вины не даёт Джону покоя, и он решает вернуться за Ахмедом и его семьёй, которых в Афганистане усиленно ищут талибы.- -Тип релиза: BDRemux 1080p
Контейнер: MKV-Видео: AVC/H.264, 1920x1080, 33100 Kbps, 23.976 fps
Аудио 1: Русский E-AC-3 5.1 / 448 kbps / 48 kHz / Dub Мосфильм-Мастер
Аудио 2: Русский E-AC-3 7.1 / 1536 kbps / 48 kHz / MVO HDRezka Studio
Аудио 3: Русский E-AC-3 5.1 / 448 kbps / 48 kHz / DVO Кубик в Кубе 18+
Аудио 4: Русский AC-3 5.1 / 384 kbps / 48 kHz / MVO TVShows
Аудио 5: Русский AC-3 5.1 / 384 kbps / 48 kHz / AVO Ю. Сербин
Аудио 6: Украинский E-AC-3 7.1 / 1536 kbps / 48 kHz / MVO DniproFilm
Аудио 7: Английский | TrueHD 7.1 ch, 2873 Kbps, 48.0 kHz
Аудио 8: Английский | AC-3, 6 ch, 448 Kbps, 48.0 kHz
Формат субтитров: softsub (SRT)-

MediaInfo

General
Unique ID                                : 184451339219175991993229090465050929046 (0x8AC40926CF884B60F11AD241CE0E2796)
Complete name                            : /Volumes/Promise Pegasus/The.Covenant.2023.BDRemux.1080p.pk.mkv
Format                                   : Matroska
Format version                           : Version 4
File size                                : 35.5 GiB
Duration                                 : 2 h 3 min
Overall bit rate mode                    : Variable
Overall bit rate                         : 41.3 Mb/s
Frame rate                               : 23.976 FPS
Movie name                               : The Covenant 2023 BDRemux 1080p pk
Encoded date                             : 2023-06-22 20:46:57 UTC
Writing application                      : mkvmerge v73.0.0 ('25 or 6 to 4') 64-bit
Writing library                          : libebml v1.4.4 + libmatroska v1.7.1
Cover                                    : Yes
Attachments                              : cover.jpg
Video
ID                                       : 1
Format                                   : AVC
Format/Info                              : Advanced Video Codec
Format profile                           : High@L4.1
Format settings                          : CABAC / 2 Ref Frames
Format settings, CABAC                   : Yes
Format settings, Reference frames        : 2 frames
Codec ID                                 : V_MPEG4/ISO/AVC
Duration                                 : 2 h 3 min
Bit rate mode                            : Variable
Bit rate                                 : 33.1 Mb/s
Width                                    : 1 920 pixels
Height                                   : 1 080 pixels
Display aspect ratio                     : 16:9
Frame rate mode                          : Constant
Frame rate                               : 23.976 (24000/1001) FPS
Color space                              : YUV
Chroma subsampling                       : 4:2:0
Bit depth                                : 8 bits
Scan type                                : Progressive
Bits/(Pixel*Frame)                       : 0.665
Stream size                              : 28.4 GiB (80%)
Language                                 : English
Default                                  : Yes
Forced                                   : No
Audio #1
ID                                       : 2
Format                                   : E-AC-3
Format/Info                              : Enhanced AC-3
Commercial name                          : Dolby Digital Plus
Codec ID                                 : A_EAC3
Duration                                 : 2 h 3 min
Bit rate mode                            : Constant
Bit rate                                 : 448 kb/s
Channel(s)                               : 6 channels
Channel layout                           : L R C LFE Ls Rs
Sampling rate                            : 48.0 kHz
Frame rate                               : 31.250 FPS (1536 SPF)
Compression mode                         : Lossy
Stream size                              : 394 MiB (1%)
Title                                    : Russian Dub Мосфильм-Мастер
Language                                 : Russian
Service kind                             : Complete Main
Default                                  : Yes
Forced                                   : No
Audio #2
ID                                       : 3
Format                                   : E-AC-3
Format/Info                              : Enhanced AC-3
Commercial name                          : Dolby Digital Plus
Format profile                           : Blu-ray Disc
Format settings                          : Dolby Surround EX
Codec ID                                 : A_EAC3
Duration                                 : 2 h 3 min
Bit rate mode                            : Constant
Bit rate                                 : 1 536 kb/s
Channel(s)                               : 8 channels
Channel layout                           : L R C LFE Ls Rs Lb Rb
Sampling rate                            : 48.0 kHz
Frame rate                               : 31.250 FPS (1536 SPF)
Compression mode                         : Lossy
Stream size                              : 1.32 GiB (4%)
Title                                    : Russian MVO HDRezka Studio
Language                                 : Russian
Service kind                             : Complete Main
Default                                  : No
Forced                                   : No
Audio #3
ID                                       : 4
Format                                   : E-AC-3
Format/Info                              : Enhanced AC-3
Commercial name                          : Dolby Digital Plus
Codec ID                                 : A_EAC3
Duration                                 : 2 h 2 min
Bit rate mode                            : Constant
Bit rate                                 : 448 kb/s
Channel(s)                               : 6 channels
Channel layout                           : L R C LFE Ls Rs
Sampling rate                            : 48.0 kHz
Frame rate                               : 31.250 FPS (1536 SPF)
Compression mode                         : Lossy
Stream size                              : 394 MiB (1%)
Title                                    : Russian DVO Кубик в Кубе 18+
Language                                 : Russian
Service kind                             : Complete Main
Default                                  : No
Forced                                   : No
Audio #4
ID                                       : 5
Format                                   : AC-3
Format/Info                              : Audio Coding 3
Commercial name                          : Dolby Digital
Codec ID                                 : A_AC3
Duration                                 : 2 h 3 min
Bit rate mode                            : Constant
Bit rate                                 : 448 kb/s
Channel(s)                               : 6 channels
Channel layout                           : L R C LFE Ls Rs
Sampling rate                            : 48.0 kHz
Frame rate                               : 31.250 FPS (1536 SPF)
Compression mode                         : Lossy
Stream size                              : 394 MiB (1%)
Title                                    : Russian MVO TVShows
Language                                 : Russian
Service kind                             : Complete Main
Default                                  : No
Forced                                   : No
Audio #5
ID                                       : 6
Format                                   : AC-3
Format/Info                              : Audio Coding 3
Commercial name                          : Dolby Digital
Codec ID                                 : A_AC3
Duration                                 : 2 h 3 min
Bit rate mode                            : Constant
Bit rate                                 : 384 kb/s
Channel(s)                               : 6 channels
Channel layout                           : L R C LFE Ls Rs
Sampling rate                            : 48.0 kHz
Frame rate                               : 31.250 FPS (1536 SPF)
Compression mode                         : Lossy
Stream size                              : 338 MiB (1%)
Title                                    : Russian AVO Ю. Сербин
Language                                 : Russian
Service kind                             : Complete Main
Default                                  : No
Forced                                   : No
Audio #6
ID                                       : 7
Format                                   : E-AC-3
Format/Info                              : Enhanced AC-3
Commercial name                          : Dolby Digital Plus
Format profile                           : Blu-ray Disc
Format settings                          : Dolby Surround EX
Codec ID                                 : A_EAC3
Duration                                 : 2 h 3 min
Bit rate mode                            : Constant
Bit rate                                 : 1 536 kb/s
Channel(s)                               : 8 channels
Channel layout                           : L R C LFE Ls Rs Lb Rb
Sampling rate                            : 48.0 kHz
Frame rate                               : 31.250 FPS (1536 SPF)
Compression mode                         : Lossy
Stream size                              : 1.32 GiB (4%)
Title                                    : Ukrainian MVO DniproFilm
Language                                 : Ukrainian
Service kind                             : Complete Main
Default                                  : No
Forced                                   : No
Audio #7
ID                                       : 8
Format                                   : MLP FBA 16-ch
Format/Info                              : Meridian Lossless Packing FBA with 16-channel presentation
Commercial name                          : Dolby TrueHD with Dolby Atmos
Codec ID                                 : A_TRUEHD
Duration                                 : 2 h 3 min
Bit rate mode                            : Variable
Bit rate                                 : 2 873 kb/s
Maximum bit rate                         : 4 512 kb/s
Channel(s)                               : 8 channels
Channel layout                           : L R C LFE Ls Rs Lb Rb
Sampling rate                            : 48.0 kHz
Frame rate                               : 1 200.000 FPS (40 SPF)
Compression mode                         : Lossless
Stream size                              : 2.47 GiB (7%)
Title                                    : English Original TrueHD
Language                                 : English
Default                                  : No
Forced                                   : No
Number of dynamic objects                : 11
Bed channel count                        : 1 channel
Bed channel configuration                : LFE
Audio #8
ID                                       : 9
Format                                   : AC-3
Format/Info                              : Audio Coding 3
Commercial name                          : Dolby Digital
Codec ID                                 : A_AC3
Duration                                 : 2 h 3 min
Bit rate mode                            : Constant
Bit rate                                 : 448 kb/s
Channel(s)                               : 6 channels
Channel layout                           : L R C LFE Ls Rs
Sampling rate                            : 48.0 kHz
Frame rate                               : 31.250 FPS (1536 SPF)
Compression mode                         : Lossy
Stream size                              : 394 MiB (1%)
Title                                    : English Original
Language                                 : English
Service kind                             : Complete Main
Default                                  : No
Forced                                   : No
Text #1
ID                                       : 10
Format                                   : UTF-8
Codec ID                                 : S_TEXT/UTF8
Codec ID/Info                            : UTF-8 Plain Text
Duration                                 : 1 h 56 min
Bit rate                                 : 14 b/s
Frame rate                               : 0.038 FPS
Count of elements                        : 265
Stream size                              : 12.4 KiB (0%)
Title                                    : Russian forced Мосфильм-Мастер
Language                                 : Russian
Default                                  : Yes
Forced                                   : No
Text #2
ID                                       : 11
Format                                   : UTF-8
Codec ID                                 : S_TEXT/UTF8
Codec ID/Info                            : UTF-8 Plain Text
Duration                                 : 1 h 43 min
Bit rate                                 : 11 b/s
Frame rate                               : 0.036 FPS
Count of elements                        : 223
Stream size                              : 8.59 KiB (0%)
Title                                    : Russian forced Кубик в Кубе
Language                                 : Russian
Default                                  : No
Forced                                   : No
Text #3
ID                                       : 12
Format                                   : UTF-8
Codec ID                                 : S_TEXT/UTF8
Codec ID/Info                            : UTF-8 Plain Text
Duration                                 : 1 h 55 min
Bit rate                                 : 63 b/s
Frame rate                               : 0.182 FPS
Count of elements                        : 1262
Stream size                              : 53.8 KiB (0%)
Title                                    : Russian full
Language                                 : Russian
Default                                  : No
Forced                                   : No
Text #4
ID                                       : 13
Format                                   : UTF-8
Codec ID                                 : S_TEXT/UTF8
Codec ID/Info                            : UTF-8 Plain Text
Duration                                 : 1 h 56 min
Bit rate                                 : 87 b/s
Frame rate                               : 0.216 FPS
Count of elements                        : 1517
Stream size                              : 75.3 KiB (0%)
Title                                    : Russian SDH
Language                                 : Russian
Default                                  : No
Forced                                   : No
Text #5
ID                                       : 14
Format                                   : UTF-8
Codec ID                                 : S_TEXT/UTF8
Codec ID/Info                            : UTF-8 Plain Text
Duration                                 : 1 h 55 min
Bit rate                                 : 57 b/s
Frame rate                               : 0.166 FPS
Count of elements                        : 1151
Stream size                              : 48.4 KiB (0%)
Title                                    : Russian full Кубик в Кубе
Language                                 : Russian
Default                                  : No
Forced                                   : No
Text #6
ID                                       : 15
Format                                   : UTF-8
Codec ID                                 : S_TEXT/UTF8
Codec ID/Info                            : UTF-8 Plain Text
Duration                                 : 1 h 55 min
Bit rate                                 : 13 b/s
Frame rate                               : 0.042 FPS
Count of elements                        : 294
Stream size                              : 11.7 KiB (0%)
Title                                    : Ukrainian forced
Language                                 : Ukrainian
Default                                  : No
Forced                                   : No
Text #7
ID                                       : 16
Format                                   : UTF-8
Codec ID                                 : S_TEXT/UTF8
Codec ID/Info                            : UTF-8 Plain Text
Duration                                 : 1 h 43 min
Bit rate                                 : 8 b/s
Frame rate                               : 0.041 FPS
Count of elements                        : 258
Stream size                              : 6.71 KiB (0%)
Title                                    : English forced
Language                                 : English
Default                                  : No
Forced                                   : No
Text #8
ID                                       : 17
Format                                   : UTF-8
Codec ID                                 : S_TEXT/UTF8
Codec ID/Info                            : UTF-8 Plain Text
Duration                                 : 1 h 59 min
Bit rate                                 : 45 b/s
Frame rate                               : 0.186 FPS
Count of elements                        : 1333
Stream size                              : 39.5 KiB (0%)
Title                                    : English full
Language                                 : English
Default                                  : No
Forced                                   : No
Text #9
ID                                       : 18
Format                                   : UTF-8
Codec ID                                 : S_TEXT/UTF8
Codec ID/Info                            : UTF-8 Plain Text
Duration                                 : 2 h 1 min
Bit rate                                 : 57 b/s
Frame rate                               : 0.239 FPS
Count of elements                        : 1733
Stream size                              : 51.3 KiB (0%)
Title                                    : English SDH
Language                                 : English
Default                                  : No
Forced                                   : No
Menu
00:00:00.000                             : en:Chapter 01
00:09:18.433                             : en:Chapter 02
00:20:11.419                             : en:Chapter 03
00:29:59.715                             : en:Chapter 04
00:41:04.671                             : en:Chapter 05
00:49:50.321                             : en:Chapter 06
01:00:01.598                             : en:Chapter 07
01:08:45.663                             : en:Chapter 08
01:20:38.125                             : en:Chapter 09
01:31:09.464                             : en:Chapter 10
01:40:28.940                             : en:Chapter 11
01:50:44.972                             : en:Chapter 12
01:56:14.968                             : en:Chapter 13

Скриншоты

[Profile]  [PM] 
Display posts:    
Reply to topic

Current time is: 25-Jul 05:37

All times are UTC + 2



You cannot post new topics in this forum
You cannot reply to topics in this forum
You cannot edit your posts in this forum
You cannot delete your posts in this forum
You cannot vote in polls in this forum
You cannot attach files in this forum
You cannot download files in this forum