Слепая одержимость / Blind Obsession (Роберт Малинфант / Robert Malenfant) [2001, США, триллер, драма, WEB-DL 1080p] MVO + Sub Eng + Original Eng

Reply to topic
 
Author
Message

Faust ®

Gender: Unknown

Longevity: 12 years

Posts: 23187

Reputation: 0 [+] [-]

Faust · Post 23-Jun-2023 10:15

[Quote] 

Слепая одержимость / Blind Obsession
Страна: США
Жанр: триллер, драма
Год выпуска: 2001
Продолжительность: 01:30:48
Перевод: Профессиональный (многоголосый закадровый)
Субтитры: английские
Оригинальная аудиодорожка: английский
Режиссер: Роберт Малинфант / Robert Malenfant
В ролях: Брэд Джонсон
Меган Галлахер
Роксана Зэл
Лесли Харди
Кен Керчевал
Тони Пантерра
Кристофер Криса
Стив Штапенхёрст
Филлис Хэмлин
Описание: Выздоравливая после потери зрения на работе, полицейский попадает в ловушку манипуляций одержимой женщины и ее психически неуравновешенной сестры.
Доп. информация: Дорожку с переводом синхронизировал ale_x2008
За дорожку благодарим - sorborello

Релиз
Сэмпл: https://www.sendspace.com/file/l05ijh
Тип релиза: WEB-DL 1080p
Контейнер: MKV
Видео: MPEG4 Video (H264) 1920x1080 23.976fps Bit rate 14.1 Mb/s
Аудио: Dolby AC3 48000Hz 2 ch stereo 192kbps
Аудио 2: E-AC-3 48000Hz stereo 224kbps
Формат субтитров: softsub (SRT)

MediaInfo

Слепая одержимость (Blind Obsession) 2001 1080p WEB-DL [by Edich2].mkvFormat                      : MatroskaFormat version              : Version 4File size                   : 9.23 GiBDuration                    : 1 h 30 minOverall bit rate mode       : VariableOverall bit rate            : 14.6 Mb/sFrame rate                  : 23.976 FPSEncoded date                : 2023-06-20 17:22:49 UTCWriting application         : mkvmerge v71.0.0 ('Altitude') 64-bitWriting library             : libebml v1.4.4 + libmatroska v1.7.1
VideoID : 1Format : AVCFormat/Info : Advanced Video CodecFormat profile : High@L4Format settings : CABAC / 4 Ref FramesFormat settings, CABAC : YesFormat settings, Reference : 4 framesCodec ID : V_MPEG4/ISO/AVCDuration : 1 h 30 minBit rate mode : VariableBit rate : 14.1 Mb/sMaximum bit rate : 15.0 Mb/sWidth : 1 920 pixelsHeight : 1 080 pixelsDisplay aspect ratio : 16:9Frame rate mode : ConstantFrame rate : 23.976 (24000/1001) FPSColor space : YUVChroma subsampling : 4:2:0Bit depth : 8 bitsScan type : ProgressiveBits/(Pixel*Frame) : 0.284Stream size : 8.97 GiB (97%)Default : YesForced : NoColor range : LimitedColor primaries : BT.709Transfer characteristics : BT.709Matrix coefficients : BT.709
Audio #1ID : 2Format : AC-3Format/Info : Audio Coding 3Commercial name : Dolby DigitalCodec ID : A_AC3Duration : 1 h 30 minBit rate mode : ConstantBit rate : 192 kb/sChannel(s) : 2 channelsChannel layout : L RSampling rate : 48.0 kHzFrame rate : 31.250 FPS (1536 SPF)Compression mode : LossyStream size : 125 MiB (1%)Language : RussianService kind : Complete MainDefault : YesForced : No
Audio #2ID : 3Format : E-AC-3Format/Info : Enhanced AC-3Commercial name : Dolby Digital PlusCodec ID : A_EAC3Duration : 1 h 30 minBit rate mode : ConstantBit rate : 224 kb/sChannel(s) : 2 channelsChannel layout : L RSampling rate : 48.0 kHzFrame rate : 31.250 FPS (1536 SPF)Compression mode : LossyStream size : 145 MiB (2%)Language : EnglishService kind : Complete MainDefault : NoForced : No
TextID : 4Format : UTF-8Codec ID : S_TEXT/UTF8Codec ID/Info : UTF-8 Plain TextDuration : 1 h 26 minBit rate : 45 b/sFrame rate : 0.187 FPSCount of elements : 975Stream size : 28.7 KiB (0%)Language : EnglishDefault : NoForced : No

Скриншоты


[Profile]  [PM] 
Display posts:    
Reply to topic

Current time is: 20-Jul 02:31

All times are UTC + 2



You cannot post new topics in this forum
You cannot reply to topics in this forum
You cannot edit your posts in this forum
You cannot delete your posts in this forum
You cannot vote in polls in this forum
You cannot attach files in this forum
You cannot download files in this forum