Она не ангел / She\'s No Angel (Рэйчел Фельдман / Rachel Feldman) [2001, США, триллер, драма, WEB-DL 1080p] MVO + Sub Eng + Original Eng

Reply to topic
 
Author
Message

Faust ®

Gender: Unknown

Longevity: 12 years

Posts: 23217

Reputation: 0 [+] [-]

Faust · Post 23-Jun-2023 10:15

[Quote] 

Она не ангел / She's No Angel
Страна: США
Жанр: триллер, драма
Год выпуска: 2001
Продолжительность: 01:25:13
Перевод: Профессиональный (многоголосый закадровый)
Субтитры: английские
Оригинальная аудиодорожка: английский
Режиссер: Рэйчел Фельдман / Rachel Feldman
В ролях: Трэйси Голд
Кевин Добсон
Ди Уоллес-Стоун
Камерон Бэнкрофт
Джеффри Мик
Терри Хойос
Мишель Джонс
Нэйтан Андерсон
Джун Джун
Описание: Дональд (Кевин Добсон) и Морин (Ди Уоллес) — супружеская пара, которая получает ужасную новость: их сын попал в автомобильную аварию и погиб. Лидди (Трейси Голд), его жена, никогда не встречалась с Дональдом и Морин. Несмотря на это, они принимают ее, потому что она совсем одна. Вскоре они обнаруживают, что она не ангел, с которым можно жить.
Donald (Kevin Dobson) and Maureen (Dee Wallace) are a married couple who get horrible news: their son was involved in a car accident and has died. Liddy (Tracey Gold), his wife, has never met Donald and Maureen. Despite that, they take her in, because she is all alone. They soon discover she is not an angel to live with.
Доп. информация: Дорожку с переводом синхронизировал ale_x2008
За дорожку благодарим - sorborello

Релиз
Сэмпл: https://www.sendspace.com/file/py9z6s
Тип релиза: WEB-DL 1080p
Контейнер: MKV
Видео: MPEG4 Video (H264) 1920x1080 29.97fps Bit rate 10 000 kb/s
Аудио 1: Dolby AC3 48000Hz 2 ch stereo 192kbps
Аудио 2: E-AC-3 48000Hz stereo 224kbps
Формат субтитров: softsub (SRT)

MediaInfo

Она не ангел (She's No Angel) 2002 1080p WEB-DL (by Edich2).mkvFormat                      : MatroskaFormat version              : Version 4File size                   : 6.16 GiBDuration                    : 1 h 25 minOverall bit rate            : 10.3 Mb/sFrame rate                  : 29.970 FPSEncoded date                : 2023-06-21 14:37:14 UTCWriting application         : mkvmerge v71.0.0 ('Altitude') 64-bitWriting library             : libebml v1.4.4 + libmatroska v1.7.1
VideoID : 1Format : AVCFormat/Info : Advanced Video CodecFormat profile : High@L4Format settings : CABAC / 4 Ref FramesFormat settings, CABAC : YesFormat settings, Reference : 4 framesCodec ID : V_MPEG4/ISO/AVCDuration : 1 h 25 minBit rate mode : ConstantBit rate : 10 000 kb/sWidth : 1 920 pixelsHeight : 1 080 pixelsDisplay aspect ratio : 16:9Frame rate mode : ConstantFrame rate : 29.970 (30000/1001) FPSColor space : YUVChroma subsampling : 4:2:0Bit depth : 8 bitsScan type : ProgressiveBits/(Pixel*Frame) : 0.161Stream size : 5.91 GiB (96%)Default : YesForced : NoColor range : LimitedColor primaries : BT.709Transfer characteristics : BT.709Matrix coefficients : BT.709
Audio #1ID : 2Format : AC-3Format/Info : Audio Coding 3Commercial name : Dolby DigitalCodec ID : A_AC3Duration : 1 h 25 minBit rate mode : ConstantBit rate : 192 kb/sChannel(s) : 2 channelsChannel layout : L RSampling rate : 48.0 kHzFrame rate : 31.250 FPS (1536 SPF)Compression mode : LossyStream size : 117 MiB (2%)Language : RussianService kind : Complete MainDefault : YesForced : No
Audio #2ID : 3Format : E-AC-3Format/Info : Enhanced AC-3Commercial name : Dolby Digital PlusCodec ID : A_EAC3Duration : 1 h 25 minBit rate mode : ConstantBit rate : 224 kb/sChannel(s) : 2 channelsChannel layout : L RSampling rate : 48.0 kHzFrame rate : 31.250 FPS (1536 SPF)Compression mode : LossyStream size : 137 MiB (2%)Language : EnglishService kind : Complete MainDefault : NoForced : No
TextID : 4Format : UTF-8Codec ID : S_TEXT/UTF8Codec ID/Info : UTF-8 Plain TextDuration : 1 h 23 minBit rate : 48 b/sFrame rate : 0.224 FPSCount of elements : 1128Stream size : 29.7 KiB (0%)Title : SDHLanguage : EnglishDefault : NoForced : No

Скриншоты



[Profile]  [PM] 
Display posts:    
Reply to topic

Current time is: 25-Jul 06:44

All times are UTC + 2



You cannot post new topics in this forum
You cannot reply to topics in this forum
You cannot edit your posts in this forum
You cannot delete your posts in this forum
You cannot vote in polls in this forum
You cannot attach files in this forum
You cannot download files in this forum