Лицом к лицу с врагом / Facing the Enemy (Роберт Малинфант / Robert Malenfant) [2001, США, триллер, детектив, WEB-DL 1080p] DVO + Sub Eng + Original Eng

Reply to topic
 
Author
Message

Faust ®

Gender: Unknown

Longevity: 12 years

Posts: 23217

Reputation: 0 [+] [-]

Faust · Post 23-Jun-2023 10:15

[Quote] 

Лицом к лицу с врагом / Facing the Enemy
Страна: США
Жанр: триллер, детектив
Год выпуска: 2001
Продолжительность: 01:34:04
Перевод: Профессиональный (двухголосый закадровый)
Субтитры: английские (Full, SDH)
Оригинальная аудиодорожка: английский
Режиссер: Роберт Малинфант / Robert Malenfant
В ролях: Линден Эшби
Максвелл Колфилд
Александра Пол
Мелани Уилсон
Синтия Престон
Брюс Вайц
Макс Гэйл
Кристофер Комс
Джун Чэдвик
Описание: Грифф Макклири - полицейский, теперь его сын застрелился из пистолета Гриффа. Год спустя и он, и его жена все еще не оправились от этого. Грифф, чувствуя себя отгороженным своей женой Оливией, решает съехать. Теперь он расследует то, что похоже на убийство-самоубийство....
Доп. информация: Дорожку с переводом синхронизировал ale_x2008
За дорожку благодарим - sorborello

Релиз
Сэмпл: https://www.sendspace.com/file/vi672m
Тип релиза: WEB-DL 1080p
Контейнер: MKV
Видео: MPEG4 Video (H264) 1920x1080 24fps Bit rate 13.0 Mb/s
Аудио 1: Dolby AC3 48000Hz 2 ch stereo 192kbps
Аудио 2: E-AC-3 48000Hz stereo 224kbps
Формат субтитров: softsub (SRT)

MediaInfo

Лицом к лицу с врагом (Facing the Enemy) 2001 1080p WEB-DL.mkvFormat                         : MatroskaFormat version                 : Version 4File size                      : 8.79 GiBDuration                       : 1 h 34 minOverall bit rate               : 13.4 Mb/sFrame rate                     : 24.000 FPSEncoded date                   : 2023-06-21 03:17:56 UTCWriting application            : mkvmerge v71.0.0 ('Altitude') 64-bitWriting library                : libebml v1.4.4 + libmatroska v1.7.1
VideoID : 1Format : AVCFormat/Info : Advanced Video CodecFormat profile : High@L4Format settings : CABAC / 4 Ref FramesFormat settings, CABAC : YesFormat settings, Reference fra : 4 framesCodec ID : V_MPEG4/ISO/AVCDuration : 1 h 34 minBit rate : 13.0 Mb/sWidth : 1 920 pixelsHeight : 1 080 pixelsDisplay aspect ratio : 16:9Frame rate mode : ConstantFrame rate : 24.000 FPSColor space : YUVChroma subsampling : 4:2:0Bit depth : 8 bitsScan type : ProgressiveBits/(Pixel*Frame) : 0.260Stream size : 8.52 GiB (97%)Default : YesForced : NoColor range : LimitedColor primaries : BT.709Transfer characteristics : BT.709Matrix coefficients : BT.709
Audio #1ID : 2Format : AC-3Format/Info : Audio Coding 3Commercial name : Dolby DigitalCodec ID : A_AC3Duration : 1 h 34 minBit rate mode : ConstantBit rate : 192 kb/sChannel(s) : 2 channelsChannel layout : L RSampling rate : 48.0 kHzFrame rate : 31.250 FPS (1536 SPF)Compression mode : LossyStream size : 129 MiB (1%)Language : RussianService kind : Complete MainDefault : YesForced : No
Audio #2ID : 3Format : E-AC-3Format/Info : Enhanced AC-3Commercial name : Dolby Digital PlusCodec ID : A_EAC3Duration : 1 h 34 minBit rate mode : ConstantBit rate : 224 kb/sChannel(s) : 2 channelsChannel layout : L RSampling rate : 48.0 kHzFrame rate : 31.250 FPS (1536 SPF)Compression mode : LossyStream size : 151 MiB (2%)Language : EnglishService kind : Complete MainDefault : NoForced : No
Text #1ID : 4Format : UTF-8Codec ID : S_TEXT/UTF8Codec ID/Info : UTF-8 Plain TextDuration : 1 h 29 minBit rate : 52 b/sFrame rate : 0.223 FPSCount of elements : 1192Stream size : 34.6 KiB (0%)Language : EnglishDefault : NoForced : No
Text #2ID : 5Format : UTF-8Codec ID : S_TEXT/UTF8Codec ID/Info : UTF-8 Plain TextDuration : 1 h 33 minBit rate : 54 b/sFrame rate : 0.237 FPSCount of elements : 1325Stream size : 37.4 KiB (0%)Title : SDHLanguage : EnglishDefault : NoForced : No

Скриншоты


[Profile]  [PM] 
Display posts:    
Reply to topic

Current time is: 25-Jul 06:43

All times are UTC + 2



You cannot post new topics in this forum
You cannot reply to topics in this forum
You cannot edit your posts in this forum
You cannot delete your posts in this forum
You cannot vote in polls in this forum
You cannot attach files in this forum
You cannot download files in this forum