Убойные каникулы / Tucker and Dale vs Evil (Илай Крэйг / Eli Craig) [2010, Канада, комедия BDRip 1080p] Dub + AVO + VO (x3) + Original (Eng) + Sub (Rus, Eng)

Reply to topic
 
Author
Message

Faust ®

Gender: Unknown

Longevity: 12 years

Posts: 23217

Reputation: 0 [+] [-]

Faust · Post 24-Jun-2023 06:45

[Quote] 

Убойные каникулы / Taкep и Дeйл пpoтив злa
Тuсkеr and Dаlе vs Еvil

«Куча жертв... ни одного маньяка»
-
]Год выхода: 2010
]Страна: США, Канада
Жанр: черная комедия
Продолжительность: 1:28:43
Перевод: Профессиональный (полное дублирование) | Boльгa
Перевод 2: Авторский (однологосый закадровый) | А. Карповский
Перевод 3: Однологосый закадровый | В. Котов
Перевод 4: Однологосый закадровый | А. Киреев
Перевод 5: Однологосый закадровый | Кураж-Бамбей
Субтитры: Rus (Forced, Full (Д. Пучков), Eng (Full, SDH)-Режиссер: Эли Kpэйг / Eli Craig
В ролях: Тaйлеp Лэбин, Aлaн Tьюдик, Kaтpинa Бoyдeн, Джeccи Mocc, Филип Гpэйнджep, Бpэндoн Джeй MaкЛaрeн, Kpиcти Лэйн, Чeлaн Cиммoнc, Tpэвиc Heльсoн, Aлeкc Apceнo и другие...-Описание:Гpyппa cтyдeнтoв кoллeджa oтпpaвляетcя зa гopoд, чтoбы вoвcю отopвaтьcя нa выхoдныx: пoпить пивкa, пoплавать в озeрe и пoдышать чиcтым лeсным вoздухом. Нo ужe в пeрвый дeнь oни cталкиваются с нeотесанными фeрмерами Такeром и Дeйлом, такжe рeшившими кaк слeдуeт оттянyться нa природe. Пpиняв этих дикoватых, нo, в сущнoсти, cимпатичных рeбят зa «злoбных мeстных», гoрoжане рeшают дaть дeрeвeнщинe жeсткий oтпор. Нo c кaждым иx шaгoм cтановится тoлько хyже…-
IMDB 7.5
Sample-Качество: BDRip 1080p | Blu-ray Disc 1080p
Формат: MKV
Видео кодек: AVC
Аудио кодек: DTS | AC3
Видео: AVC 9726 kb/s 1920 x 818 (2.347) 23.976 fps
Аудио 1: 48 kHz, DTS, 5.1 ch, 1536 | DUB (Boльгa)|
Аудио 2: AC-3 448 kb/s 6 channels, 48.0 kHz kbps | AVO А. Карповский
Аудио 3: 48 kHz, DTS, 5.1 ch, 1536 kbps | VO В. Котов
Аудио 4: 48 kHz, DTS, 5.1 ch, 1536 kbps | VO А. Киреев
Аудио 5: AC-3 192 kb/s 2 channels, 48.0 kHz | VO Кураж-Бамбей
Аудио 6: DTS 1509 kb/s 6 channels, 48.0 kHz | ENG
Главы: есть-

Info | Log

Log

x264 [info]: profile High, level 4.1, 4:2:0, 8-bit
x264 [info]: frame I:1181 Avg QP:12.52 size:202681
x264 [info]: frame P:32225 Avg QP:13.71 size: 92365
x264 [info]: frame B:94020 Avg QP:15.59 size: 34518
x264 [info]: consecutive B-frames: 5.3% 6.2% 12.0% 11.9% 6.5% 54.9% 1.3% 0.2% 0.3% 0.4% 0.8%
x264 [info]: mb I I16..4: 7.7% 71.2% 21.1%
x264 [info]: mb P I16..4: 1.5% 21.6% 3.4% P16..4: 24.5% 27.0% 11.3% 2.4% 0.2% skip: 8.1%
x264 [info]: mb B I16..4: 0.5% 3.2% 0.6% B16..8: 37.1% 23.1% 4.0% direct: 7.5% skip:24.1% L0:45.6% L1:39.5% BI:14.9%
x264 [info]: 8x8 transform intra:78.6% inter:50.0%
x264 [info]: direct mvs spatial:100.0% temporal:0.0%
x264 [info]: coded y,uvDC,uvAC intra: 82.9% 81.1% 72.1% inter: 34.2% 28.7% 10.6%
x264 [info]: i16 v,h,dc,p: 47% 12% 12% 29%
x264 [info]: i8 v,h,dc,ddl,ddr,vr,hd,vl,hu: 15% 10% 17% 8% 9% 10% 9% 11% 11%
x264 [info]: i4 v,h,dc,ddl,ddr,vr,hd,vl,hu: 31% 10% 19% 5% 8% 8% 6% 6% 6%
x264 [info]: i8c dc,h,v,p: 49% 23% 19% 9%
x264 [info]: Weighted P-Frames: Y:2.8% UV:1.7%
x264 [info]: ref P L0: 54.9% 11.6% 18.6% 7.9% 6.7% 0.4% 0.0%
x264 [info]: ref B L0: 80.5% 13.4% 4.8% 1.3%
x264 [info]: ref B L1: 95.5% 4.5%
x264 [info]: kb/s:9725.73
x264 [total]: encoded 127426 frames, 12.70 fps, 9725.73 kb/s
Format : Matroska
Format version : Version 4
File size : 10.2 GiB
Duration : 1 h 28 min
Overall bit rate : 16.4 Mb/s
Frame rate : 23.976 FPS
Movie name : Tucker and Dale vs Evil (2010).1080p [torrentsland.com.ua]
Encoded date : 2023-06-23 19:20:22 UTC
Writing application : mkvmerge v34.0.0 ('Sight and Seen') 64-bit
Writing library : libebml v1.3.7 + libmatroska v1.5.0
Video
ID : 1
Format : AVC
Format/Info : Advanced Video Codec
Format profile : High@L4.1
Format settings : CABAC / 5 Ref Frames
Format settings, CABAC : Yes
Format settings, Reference frames : 5 frames
Codec ID : V_MPEG4/ISO/AVC
Duration : 1 h 28 min
Bit rate : 9 726 kb/s
Width : 1 920 pixels
Height : 818 pixels
Display aspect ratio : 2.35:1
Frame rate mode : Constant
Frame rate : 23.976 (24000/1001) FPS
Color space : YUV
Chroma subsampling : 4:2:0
Bit depth : 8 bits
Scan type : Progressive
Bits/(Pixel*Frame) : 0.258
Stream size : 6.02 GiB (59%)
Title : Tucker and Dale vs Evil (2010).1080p [torrentsland.com.ua]
Writing library : x264 core 164 r3107 a8b68eb
Encoding settings : cabac=1 / ref=5 / deblock=1:-3:-3 / analyse=0x3:0x133 / me=umh / subme=11 / psy=1 / psy_rd=1.00:0.05 / mixed_ref=1 / me_range=32 / chroma_me=1 / trellis=2 / 8x8dct=1 / cqm=0 / deadzone=21,11 / fast_pskip=0 / chroma_qp_offset=-3 / threads=24 / lookahead_threads=6 / sliced_threads=0 / nr=0 / decimate=1 / interlaced=0 / bluray_compat=0 / constrained_intra=0 / bframes=10 / b_pyramid=2 / b_adapt=2 / b_bias=0 / direct=3 / weightb=1 / open_gop=0 / weightp=2 / keyint=250 / keyint_min=23 / scenecut=40 / intra_refresh=0 / rc_lookahead=60 / rc=crf / mbtree=0 / crf=15.7 / qcomp=0.60 / qpmin=0 / qpmax=69 / qpstep=4 / vbv_maxrate=50000 / vbv_bufsize=62500 / crf_max=0.0 / nal_hrd=none / filler=0 / ip_ratio=1.40 / pb_ratio=1.30 / aq=3:0.90
Language : English
Default : Yes
Forced : No
Audio #1
ID : 2
Format : DTS
Format/Info : Digital Theater Systems
Codec ID : A_DTS
Duration : 1 h 28 min
Bit rate mode : Constant
Bit rate : 1 510 kb/s
Channel(s) : 6 channels
Channel layout : C L R Ls Rs LFE
Sampling rate : 48.0 kHz
Frame rate : 93.750 FPS (512 SPF)
Bit depth : 24 bits
Compression mode : Lossy
Stream size : 956 MiB (9%)
Title : DUB (Boльгa)
Language : Russian
Default : Yes
Forced : No
Audio #2
ID : 3
Format : AC-3
Format/Info : Audio Coding 3
Commercial name : Dolby Digital
Codec ID : A_AC3
Duration : 1 h 28 min
Bit rate mode : Constant
Bit rate : 448 kb/s
Channel(s) : 6 channels
Channel layout : L R C LFE Ls Rs
Sampling rate : 48.0 kHz
Frame rate : 31.250 FPS (1536 SPF)
Compression mode : Lossy
Stream size : 284 MiB (3%)
Title : AVO (А. Карповский)
Language : Russian
Service kind : Complete Main
Default : No
Forced : No
Audio #3
ID : 4
Format : DTS
Format/Info : Digital Theater Systems
Codec ID : A_DTS
Duration : 1 h 28 min
Bit rate mode : Constant
Bit rate : 1 510 kb/s
Channel(s) : 6 channels
Channel layout : C L R Ls Rs LFE
Sampling rate : 48.0 kHz
Frame rate : 93.750 FPS (512 SPF)
Bit depth : 24 bits
Compression mode : Lossy
Stream size : 956 MiB (9%)
Title : VO (В. Котов)
Language : Russian
Default : No
Forced : No
Audio #4
ID : 5
Format : DTS
Format/Info : Digital Theater Systems
Codec ID : A_DTS
Duration : 1 h 28 min
Bit rate mode : Constant
Bit rate : 1 509 kb/s
Channel(s) : 6 channels
Channel layout : C L R Ls Rs LFE
Sampling rate : 48.0 kHz
Frame rate : 93.750 FPS (512 SPF)
Bit depth : 24 bits
Compression mode : Lossy
Stream size : 957 MiB (9%)
Title : VO (А. Киреев)
Language : Russian
Default : No
Forced : No
Audio #5
ID : 6
Format : AC-3
Format/Info : Audio Coding 3
Commercial name : Dolby Digital
Codec ID : A_AC3
Duration : 1 h 28 min
Bit rate mode : Constant
Bit rate : 192 kb/s
Channel(s) : 2 channels
Channel layout : L R
Sampling rate : 48.0 kHz
Frame rate : 31.250 FPS (1536 SPF)
Compression mode : Lossy
Stream size : 122 MiB (1%)
Title : VO (Кураж-Бамбей)
Language : Russian
Service kind : Complete Main
Default : No
Forced : No
Audio #6
ID : 7
Format : DTS
Format/Info : Digital Theater Systems
Codec ID : A_DTS
Duration : 1 h 28 min
Bit rate mode : Constant
Bit rate : 1 509 kb/s
Channel(s) : 6 channels
Channel layout : C L R Ls Rs LFE
Sampling rate : 48.0 kHz
Frame rate : 93.750 FPS (512 SPF)
Bit depth : 16 bits
Compression mode : Lossy
Stream size : 956 MiB (9%)
Title : Original
Language : English
Default : No
Forced : No
Text #1
ID : 8
Format : UTF-8
Codec ID : S_TEXT/UTF8
Codec ID/Info : UTF-8 Plain Text
Duration : 7 s 710 ms
Bit rate : 84 b/s
Frame rate : 0.259 FPS
Count of elements : 2
Stream size : 81.0 Bytes (0%)
Title : Forced
Language : Russian
Default : Yes
Forced : No
Text #2
ID : 9
Format : UTF-8
Codec ID : S_TEXT/UTF8
Codec ID/Info : UTF-8 Plain Text
Duration : 1 h 23 min
Bit rate : 106 b/s
Frame rate : 0.223 FPS
Count of elements : 1114
Stream size : 64.7 KiB (0%)
Title : Full (Д. Пучков)
Language : Russian
Default : No
Forced : No
Text #3
ID : 10
Format : UTF-8
Codec ID : S_TEXT/UTF8
Codec ID/Info : UTF-8 Plain Text
Duration : 1 h 22 min
Bit rate : 72 b/s
Frame rate : 0.245 FPS
Count of elements : 1218
Stream size : 43.6 KiB (0%)
Title : Full
Language : English
Default : No
Forced : No
Text #4
ID : 11
Format : UTF-8
Codec ID : S_TEXT/UTF8
Codec ID/Info : UTF-8 Plain Text
Duration : 1 h 22 min
Bit rate : 79 b/s
Frame rate : 0.271 FPS
Count of elements : 1343
Stream size : 47.9 KiB (0%)
Title : SDH
Language : English
Default : No
Forced : No
Menu
00:00:00.000 : Глава 01
00:06:00.110 : Глава 02
00:12:02.263 : Глава 03
00:13:20.341 : Глава 04
00:20:11.752 : Глава 05
00:23:01.422 : Глава 06
00:30:25.991 : Глава 07
00:31:42.651 : Глава 08
00:37:52.604 : Глава 09
00:41:28.569 : Глава 10
00:45:00.698 : Глава 11
00:48:15.518 : Глава 12
00:52:09.126 : Глава 13
00:56:42.441 : Глава 14
00:56:44.151 : Глава 15
01:03:27.387 : Глава 16
01:07:53.569 : Глава 17
01:10:54.750 : Глава 18
01:17:55.087 : Глава 19
01:22:56.847 : Глава 20

Compare

BD

Rip 1080p

Old Pro_Rock_

[Profile]  [PM] 
Display posts:    
Reply to topic

Current time is: 25-Jul 06:39

All times are UTC + 2



You cannot post new topics in this forum
You cannot reply to topics in this forum
You cannot edit your posts in this forum
You cannot delete your posts in this forum
You cannot vote in polls in this forum
You cannot attach files in this forum
You cannot download files in this forum