Зона 414 / Zone 414 (Эндрю Бейрд / Andrew Baird) [2021, Великобритания, США, Фантастика, триллер, BDRip 720p] Dub (CPI Films) + Sub (Rus, Eng) + Original Eng

Reply to topic
 
Author
Message

Faust ®

Gender: Unknown

Longevity: 12 years

Posts: 23187

Reputation: 0 [+] [-]

Faust · Post 24-Jun-2023 06:45

[Quote] 

Зона 414 / Zone 414
«Что скрывает город роботов?»
- Страна: Великобритания, США
Студия: 23ten, Baird Films, El Ride Productions, Great Point Media, Highland Film Group (HFG), Saban Films
Жанр: Фантастика, триллер
Год выпуска: 2021
Продолжительность: 01:38:30
Перевод: Профессиональный (дублированный) | CPI Films
Субтитры: Rus (Full), Eng (Full)
Оригинальная аудиодорожка: Eng-Режиссер: Эндрю Бейрд / Andrew Baird-В ролях:
Гай Пирс | Guy Pearce
Трэвис Фиммел, Матильда Анна Ингрид Лутс, Йоуханнес Хёйкюр Йоуханнессон, Нед Деннехи, Колин Сэлмон, Джонатан Арис, Антония Кэмпбелл-Хьюз, Олуэн Фуэре, Мэгги Кронин-Описание:В недалёком будущем высокотехнологичные колонии населены человекоподобными роботами. Когда дочь создателя Города роботов пропадает без следа, он посылает на её поиски частного детектива Дэвида Кармайкла. Тот объединяется с продвинутым искусственным интеллектом и начинает расследование. В ходе поисков Кармайкл узнаёт историю создания Зоны 414 и истинную причину существования колонии.-
IMDB 5.0
Sample-Тип релиза: BDRip 720p | BDRemux 1080p
Контейнер: MKV
Видео: AVC 4427 kb/s 1280 x 536 (2.388) 23.976 fps
Аудио 1: AC-3 448 kb/s 6 channels, 48.0 kHz | | CPI Films |
Аудио 2: DTS 1509 kb/s 6 channels, 48.0 kHz | | Original |-

MediaInfo | Log

Log

x264 [info]: profile High, level 4.1, 4:2:0, 8-bit
x264 [info]: frame I:840 Avg QP:10.88 size:110085
x264 [info]: frame P:25410 Avg QP:12.10 size: 49118
x264 [info]: frame B:115458 Avg QP:14.29 size: 16715
x264 [info]: consecutive B-frames: 1.2% 1.3% 4.6% 7.2% 11.2% 46.6% 10.2% 3.3% 4.4% 3.6% 6.5%
x264 [info]: mb I I16..4: 18.6% 69.1% 12.3%
x264 [info]: mb P I16..4: 1.0% 22.7% 1.3% P16..4: 22.3% 32.4% 14.9% 3.2% 0.1% skip: 2.1%
x264 [info]: mb B I16..4: 0.1% 2.0% 0.2% B16..8: 32.2% 29.8% 7.7% direct: 6.5% skip:21.4% L0:51.3% L1:39.5% BI: 9.2%
x264 [info]: 8x8 transform intra:87.8% inter:46.3%
x264 [info]: direct mvs spatial:100.0% temporal:0.0%
x264 [info]: coded y,uvDC,uvAC intra: 92.5% 86.1% 82.7% inter: 29.5% 27.9% 14.1%
x264 [info]: i16 v,h,dc,p: 26% 14% 15% 45%
x264 [info]: i8 v,h,dc,ddl,ddr,vr,hd,vl,hu: 13% 11% 19% 8% 9% 10% 9% 10% 11%
x264 [info]: i4 v,h,dc,ddl,ddr,vr,hd,vl,hu: 12% 9% 29% 7% 9% 10% 8% 8% 9%
x264 [info]: i8c dc,h,v,p: 52% 24% 13% 11%
x264 [info]: Weighted P-Frames: Y:9.3% UV:6.7%
x264 [info]: ref P L0: 40.4% 5.6% 21.7% 8.2% 7.9% 4.8% 5.4% 2.7% 3.1% 0.3% 0.0%
x264 [info]: ref B L0: 59.0% 16.2% 9.5% 5.4% 4.0% 3.4% 2.0% 0.5%
x264 [info]: ref B L1: 91.5% 8.5%
x264 [info]: kb/s:4426.61
x264 [total]: encoded 141708 frames, 19.47 fps, 4426.61 kb/s
Format : Matroska
Format version : Version 4
File size : 4.39 GiB
Duration : 1 h 38 min
Overall bit rate : 6 387 kb/s
Frame rate : 23.976 FPS
Movie name : Zone 414 (2021).720p [torrentsland.com.ua]
Encoded date : 2023-06-18 11:52:27 UTC
Writing application : mkvmerge v34.0.0 ('Sight and Seen') 64-bit
Writing library : libebml v1.3.7 + libmatroska v1.5.0
Cover : Yes
Attachments : cover.png
Video
ID : 1
Format : AVC
Format/Info : Advanced Video Codec
Format profile : High@L4.1
Format settings : CABAC / 9 Ref Frames
Format settings, CABAC : Yes
Format settings, Reference frames : 9 frames
Codec ID : V_MPEG4/ISO/AVC
Duration : 1 h 38 min
Bit rate : 4 427 kb/s
Width : 1 280 pixels
Height : 536 pixels
Display aspect ratio : 2.40:1
Frame rate mode : Constant
Frame rate : 23.976 (24000/1001) FPS
Color space : YUV
Chroma subsampling : 4:2:0
Bit depth : 8 bits
Scan type : Progressive
Bits/(Pixel*Frame) : 0.269
Stream size : 3.05 GiB (69%)
Title : Zone 414 (2021).720p [torrentsland.com.ua]
Writing library : x264 core 164 r3107 a8b68eb
Encoding settings : cabac=1 / ref=9 / deblock=1:-3:-2 / analyse=0x3:0x133 / me=umh / subme=11 / psy=1 / psy_rd=1.00:0.05 / mixed_ref=1 / me_range=32 / chroma_me=1 / trellis=2 / 8x8dct=1 / cqm=0 / deadzone=21,11 / fast_pskip=0 / chroma_qp_offset=-3 / threads=17 / lookahead_threads=4 / sliced_threads=0 / nr=0 / decimate=1 / interlaced=0 / bluray_compat=0 / constrained_intra=0 / bframes=10 / b_pyramid=2 / b_adapt=2 / b_bias=0 / direct=3 / weightb=1 / open_gop=0 / weightp=2 / keyint=250 / keyint_min=23 / scenecut=40 / intra_refresh=0 / rc_lookahead=60 / rc=crf / mbtree=0 / crf=16.4 / qcomp=0.60 / qpmin=0 / qpmax=69 / qpstep=4 / vbv_maxrate=50000 / vbv_bufsize=62500 / crf_max=0.0 / nal_hrd=none / filler=0 / ip_ratio=1.40 / pb_ratio=1.30 / aq=3:0.90
Language : English
Default : Yes
Forced : No
Audio #1
ID : 2
Format : AC-3
Format/Info : Audio Coding 3
Commercial name : Dolby Digital
Codec ID : A_AC3
Duration : 1 h 38 min
Bit rate mode : Constant
Bit rate : 448 kb/s
Channel(s) : 6 channels
Channel layout : L R C LFE Ls Rs
Sampling rate : 48.0 kHz
Frame rate : 31.250 FPS (1536 SPF)
Compression mode : Lossy
Stream size : 316 MiB (7%)
Title : DUB CPI Films
Language : Russian
Service kind : Complete Main
Default : Yes
Forced : No
Audio #2
ID : 3
Format : DTS
Format/Info : Digital Theater Systems
Codec ID : A_DTS
Duration : 1 h 38 min
Bit rate mode : Constant
Bit rate : 1 509 kb/s
Channel(s) : 6 channels
Channel layout : C L R Ls Rs LFE
Sampling rate : 48.0 kHz
Frame rate : 93.750 FPS (512 SPF)
Bit depth : 24 bits
Compression mode : Lossy
Stream size : 1.04 GiB (24%)
Title : Original
Language : English
Default : No
Forced : No
Text #1
ID : 4
Format : UTF-8
Codec ID : S_TEXT/UTF8
Codec ID/Info : UTF-8 Plain Text
Duration : 1 h 33 min
Bit rate : 73 b/s
Frame rate : 0.190 FPS
Count of elements : 1063
Stream size : 49.9 KiB (0%)
Title : Full
Language : Russian
Default : No
Forced : No
Text #2
ID : 5
Format : UTF-8
Codec ID : S_TEXT/UTF8
Codec ID/Info : UTF-8 Plain Text
Duration : 1 h 30 min
Bit rate : 45 b/s
Frame rate : 0.182 FPS
Count of elements : 983
Stream size : 29.9 KiB (0%)
Title : Full
Language : English
Default : No
Forced : No
Menu
00:00:00.000 : en:Глава 01
00:08:01.147 : en:Глава 02
00:18:41.912 : en:Глава 03
00:27:48.208 : en:Глава 04
00:34:56.553 : en:Глава 05
00:44:53.858 : en:Глава 06
00:56:28.427 : en:Глава 07
01:04:28.239 : en:Глава 08
01:13:41.375 : en:Глава 09
01:22:37.953 : en:Глава 10
01:33:26.100 : en:Глава 11

Скриншоты





Compare

BD

Rip 720p
[Profile]  [PM] 
Display posts:    
Reply to topic

Current time is: 20-Jul 01:52

All times are UTC + 2



You cannot post new topics in this forum
You cannot reply to topics in this forum
You cannot edit your posts in this forum
You cannot delete your posts in this forum
You cannot vote in polls in this forum
You cannot attach files in this forum
You cannot download files in this forum