Век Адалин / The Age of Adaline (Ли Толанд Кригер / Lee Toland Krieger) [2015, США, Канада, драма, мелодрама, фэнтези, BDRip 1080p] Dub (iTunes) + Sub Rus, Eng + Original Eng

Reply to topic
 
Author
Message

Faust ®

Gender: Unknown

Longevity: 12 years

Posts: 23187

Reputation: 0 [+] [-]

Faust · Post 24-Jun-2023 06:45

[Quote] 

Век Адалин / The Age of Adaline
За последний век мир изменился. Адалин - нет
- Страна: США, Канада
Жанр: драма, мелодрама, фэнтези
Год выпуска: 2015
Продолжительность: 01:52:44
Перевод: Профессиональный (дублированный) iTunes
Оригинальная аудиодорожка: Eng
Субтитры: Rus (Forced, Full), Eng (Full, SDH, SDH-Colored)-Режиссер: Ли Толанд Кригер / Lee Toland Krieger
В ролях:
Блейк Лайвли | Blake Lively
Михил Хаушман, Кэти Бейкер, Харрисон Форд, Эллен Бёрстин, Аманда Крю, Линда Бойд, Хью Росс, Ричард Хэрмон, Фульвио Чечере, Анджали Джай, Хиро Канагава, Питер Дж. Грэй, Изабель Пирс, Кит Ричардсон, Джейн Крэйвен...-Описание:По сюжету главная героиня родилась вместе с XX веком и живет на свете уже сто лет, но при этом не стареет. Несмотря на свою долгую жизнь, Адалин так и не смогла найти любимого человека. Однако наконец-то она встречает мужчину, ради которого сможет снова стать смертной и состариться вместе с ним.-
IMDB 7.2
Sample-Качество видео: BDRip 1080p | The Age of Adaline 2015 1080p Hybrid ReMuX AVC TrueHD 7.1-BiZKiT | Video JPN PQ (Prime Quality)
Формат видео: MKV
Видео: AVC 14.8 Mb/s 1920 x 800 (2.400) 23.976 fps
Аудио 1: AC-3 384 kb/s 6 channels, 48.0 kHz | RUS DUB iTunes
Аудио 2: AC-3 640 kb/s 6 channels, 48.0 kHz | ENG
Формат субтитров: softsub (SRT)

MediaInfo | Log

Log

x264 [info]: profile High, level 4.1, 4:2:0, 8-bit
x264 [info]: frame I:1190 Avg QP:13.95 size:268446
x264 [info]: frame P:32514 Avg QP:15.16 size:122585
x264 [info]: frame B:128488 Avg QP:17.12 size: 63753
x264 [info]: consecutive B-frames: 1.9% 1.5% 7.9% 8.1% 13.6% 57.5% 5.6% 0.8% 0.8% 0.9% 1.5%
x264 [info]: mb I I16..4: 14.8% 74.8% 10.4%
x264 [info]: mb P I16..4: 1.5% 30.0% 1.1% P16..4: 20.0% 26.6% 11.0% 1.9% 0.1% skip: 7.9%
x264 [info]: mb B I16..4: 0.3% 6.3% 0.1% B16..8: 34.6% 22.7% 4.8% direct: 8.7% skip:22.5% L0:46.1% L1:39.7% BI:14.2%
x264 [info]: 8x8 transform intra:91.9% inter:55.9%
x264 [info]: direct mvs spatial:99.9% temporal:0.1%
x264 [info]: coded y,uvDC,uvAC intra: 94.4% 94.7% 91.0% inter: 43.1% 43.9% 25.0%
x264 [info]: i16 v,h,dc,p: 49% 7% 14% 30%
x264 [info]: i8 v,h,dc,ddl,ddr,vr,hd,vl,hu: 9% 8% 18% 9% 11% 11% 11% 11% 12%
x264 [info]: i4 v,h,dc,ddl,ddr,vr,hd,vl,hu: 11% 8% 16% 8% 13% 12% 12% 9% 12%
x264 [info]: i8c dc,h,v,p: 67% 10% 9% 14%
x264 [info]: Weighted P-Frames: Y:4.3% UV:2.5%
x264 [info]: ref P L0: 45.1% 8.7% 25.3% 10.2% 10.4% 0.3% 0.0%
x264 [info]: ref B L0: 71.4% 19.4% 7.3% 1.9%
x264 [info]: ref B L1: 92.7% 7.3%
x264 [info]: kb/s:14778.60
x264 [total]: encoded 162192 frames, 10.65 fps, 14778.60 kb/s
Format : Matroska
Format version : Version 4
File size : 12.4 GiB
Duration : 1 h 52 min
Overall bit rate : 15.8 Mb/s
Movie name : The Age of Adaline (2015).1080p [torrentsland.com.ua]
Encoded date : UTC 2023-06-11 07:40:54
Writing application : mkvmerge v34.0.0 ('Sight and Seen') 64-bit
Writing library : libebml v1.3.7 + libmatroska v1.5.0
Cover : Yes
Attachments : cover.jpg
Video
ID : 1
Format : AVC
Format/Info : Advanced Video Codec
Format profile : High@L4.1
Format settings : CABAC / 5 Ref Frames
Format settings, CABAC : Yes
Format settings, Reference frames : 5 frames
Codec ID : V_MPEG4/ISO/AVC
Duration : 1 h 52 min
Bit rate : 14.8 Mb/s
Width : 1 920 pixels
Height : 800 pixels
Display aspect ratio : 2.40:1
Frame rate mode : Constant
Frame rate : 23.976 (24000/1001) FPS
Color space : YUV
Chroma subsampling : 4:2:0
Bit depth : 8 bits
Scan type : Progressive
Bits/(Pixel*Frame) : 0.401
Stream size : 11.6 GiB (94%)
Title : The Age of Adaline (2015).1080p [torrentsland.com.ua]
Writing library : x264 core 164 r3107 a8b68eb
Encoding settings : cabac=1 / ref=5 / deblock=1:-3:-3 / analyse=0x3:0x133 / me=umh / subme=11 / psy=1 / psy_rd=1.00:0.05 / mixed_ref=1 / me_range=32 / chroma_me=1 / trellis=2 / 8x8dct=1 / cqm=0 / deadzone=21,11 / fast_pskip=0 / chroma_qp_offset=-3 / threads=24 / lookahead_threads=6 / sliced_threads=0 / nr=0 / decimate=1 / interlaced=0 / bluray_compat=0 / constrained_intra=0 / bframes=10 / b_pyramid=2 / b_adapt=2 / b_bias=0 / direct=3 / weightb=1 / open_gop=0 / weightp=2 / keyint=250 / keyint_min=23 / scenecut=40 / intra_refresh=0 / rc_lookahead=60 / rc=crf / mbtree=0 / crf=17.4 / qcomp=0.60 / qpmin=0 / qpmax=69 / qpstep=4 / vbv_maxrate=50000 / vbv_bufsize=62500 / crf_max=0.0 / nal_hrd=none / filler=0 / ip_ratio=1.40 / pb_ratio=1.30 / aq=3:0.90
Language : English
Default : Yes
Forced : No
Audio #1
ID : 2
Format : AC-3
Format/Info : Audio Coding 3
Commercial name : Dolby Digital
Codec ID : A_AC3
Duration : 1 h 52 min
Bit rate mode : Constant
Bit rate : 384 kb/s
Channel(s) : 6 channels
Channel layout : L R C LFE Ls Rs
Sampling rate : 48.0 kHz
Frame rate : 31.250 FPS (1536 SPF)
Compression mode : Lossy
Stream size : 309 MiB (2%)
Title : DUB (iTunes)
Language : Russian
Service kind : Complete Main
Default : Yes
Forced : No
Audio #2
ID : 3
Format : AC-3
Format/Info : Audio Coding 3
Commercial name : Dolby Digital
Codec ID : A_AC3
Duration : 1 h 52 min
Bit rate mode : Constant
Bit rate : 640 kb/s
Channel(s) : 6 channels
Channel layout : L R C LFE Ls Rs
Sampling rate : 48.0 kHz
Frame rate : 31.250 FPS (1536 SPF)
Compression mode : Lossy
Stream size : 515 MiB (4%)
Title : Original
Language : English
Service kind : Complete Main
Default : No
Forced : No
Text #1
ID : 4
Format : UTF-8
Codec ID : S_TEXT/UTF8
Codec ID/Info : UTF-8 Plain Text
Duration : 4 min 31 s
Bit rate : 9 b/s
Frame rate : 0.018 FPS
Count of elements : 5
Stream size : 313 Bytes (0%)
Title : Forced
Language : Russian
Default : Yes
Forced : No
Text #2
ID : 5
Format : UTF-8
Codec ID : S_TEXT/UTF8
Codec ID/Info : UTF-8 Plain Text
Duration : 1 h 46 min
Bit rate : 84 b/s
Frame rate : 0.190 FPS
Count of elements : 1206
Stream size : 66.0 KiB (0%)
Title : Full
Language : Russian
Default : No
Forced : No
Text #3
ID : 6
Format : UTF-8
Codec ID : S_TEXT/UTF8
Codec ID/Info : UTF-8 Plain Text
Duration : 1 h 44 min
Bit rate : 55 b/s
Frame rate : 0.176 FPS
Count of elements : 1104
Stream size : 42.2 KiB (0%)
Title : Full
Language : English
Default : No
Forced : No
Text #4
ID : 7
Format : UTF-8
Codec ID : S_TEXT/UTF8
Codec ID/Info : UTF-8 Plain Text
Duration : 1 h 44 min
Bit rate : 60 b/s
Frame rate : 0.231 FPS
Count of elements : 1449
Stream size : 46.3 KiB (0%)
Title : SDH
Language : English
Default : No
Forced : No
Text #5
ID : 8
Format : UTF-8
Codec ID : S_TEXT/UTF8
Codec ID/Info : UTF-8 Plain Text
Duration : 1 h 44 min
Bit rate : 70 b/s
Frame rate : 0.231 FPS
Count of elements : 1447
Stream size : 54.0 KiB (0%)
Title : SDH-Colored
Language : English
Default : No
Forced : No
Menu
00:00:00.000 : en:00:00:00.000
00:16:53.137 : en:00:16:53.137
00:28:10.898 : en:00:28:10.898
00:46:45.594 : en:00:46:45.594
00:59:51.922 : en:00:59:51.922
01:13:44.295 : en:01:13:44.295
01:31:29.109 : en:01:31:29.109
01:43:22.947 : en:01:43:22.947

Скриншоты




Compare

BD

Rip 1080p
[Profile]  [PM] 
Display posts:    
Reply to topic

Current time is: 20-Jul 01:51

All times are UTC + 2



You cannot post new topics in this forum
You cannot reply to topics in this forum
You cannot edit your posts in this forum
You cannot delete your posts in this forum
You cannot vote in polls in this forum
You cannot attach files in this forum
You cannot download files in this forum