Странная болезнь / Загадочная болезнь / Il Male oscuro / Dark Illness (Марио Моничелли / Mario Monicelli) [1990, Италия, Драма, комедия, WEB-DLRip-AVC] [Полная версия] DVO (ОРТ) + Sub Eng, Ita + Original Ita

Reply to topic
 
Author
Message

Satyr ®

Gender: Unknown

Longevity: 15 years

Posts: 22031

Reputation: 56 [+] [-]

Satyr · Post 24-Jun-2023 06:45

[Quote] 

Странная болезнь / Загадочная болезнь / Il Male oscuro / Dark Illness [Полная версия]
Жанр: Драма, комедия
Страна: Италия
Студия: Clemi Cinematografica S.r.l.
Год выпуска: 1990
Продолжительность: 01:53:15
Перевод: Профессиональный (двухголосый закадровый) - кинокомпания «Селена Интернэшнл» по заказу ОРТ
Субтитры: русские (форсированные) – на пропущенный в озвучке фрагмент (00:59:46-01:05:16)
Субтитры: английские, итальянские
Оригинальная аудиодорожка: итальянский
Режиссер: Марио Моничелли / Mario Monicelli
В ролях:
Джанкарло Джаннини / Giancarlo Giannini ... Джузеппе Марчи / Giuseppe Marchi
Эмманюэль Сенье / Emmanuelle Seigner ... жена Джузеппе / Moglie di Giuseppe
Стефания Сандрелли / Stefania Sandrelli ... Сильвен / Sylvaine
Витторио Каприоли / Vittorio Caprioli ... Психоаналитик / Psicanalista
Элиза Майнарди / Elisa Mainardi ... Аналитик / Analista
Антонелло Фассари / Antonello Fassari ... доктор Джорджио Корсини / Dottor Giorgio Corsini
Кьяра Арджелли / Chiara Argelli ...
Бенито Артези / Benito Artesi ... Бакарди / Baciardi
Ориана Бакарди / Oriana Baciardi ...
Джанни Багино / Gianni Baghino ...
Санти Беллина / Santi Bellina ...
Мариолетта Бидери / Marioletta Bideri ...
Мария Микела Карузо / Maria Michela Caruso ...
Донателла Чеккарелло / Donatella Ceccarello ...
Карло Коломбо / Carlo Colombo
Описание: По одноимённому роману Джузеппе Берто (Giuseppe Berto).
50-летний писатель Джузеппе Марчи на приеме у психиатра пытается понять причину своего невроза, что, как он надеется, поможет ему преодолеть и глубокий творческий кризис. Джузеппе вспоминает свою жизнь с самого детства. Над ним в детстве доминировал авторитарный и деспотичный отец в мундире маршала карабинеров, он вырос в скромной семье, продолжал учебу благодаря большим жертвам, всегда разочаровывался от трудностей и мучился от этого. Знакомство с молодой девушкой, которая становится женой Джузеппе. Рождение дочери. Где же, где она? Где прячется эта странная болезнь, которая не даёт ему покоя?
И тогда Джузеппе решает уйти и жить в одиночестве в лачуге среди калабрийских оливковых деревьев, возделывать свой огород. Оттуда вечером он наблюдает за Мессинским проливом, за которым видны огни Сицилии, где его отец, который до сих пор висит в памяти, родился и жил…

Дополнительная информация:
Релиз:
Исходник найден в сети.
Автор рипа: pmv
Большое спасибо за:
- русскую аудиодорожку (https://torrentsland.com.ua/forum/viewtopic.php?t=399567) - Гость – dsz (Феникс)
- синхронизацию звуковой дорожки - pmv

ПРОСЬБА к СКАЧАВШИМ. НЕ УХОДИТЕ С РАЗДАЧИ, ПОМОГИТЕ ДРУГИМ СКАЧАТЬ!!!
Качество видео: WEB-DLRip-AVC
Формат видео: MKV
Видео: AVC (H264), 1076x648 (1.66:1), 24 fps, 1650 kbps, 0.118 bits/pixel
Аудио #1: AC3, 48 KHz, stereo (2 ch), 192 kbps – русский DVO
Аудио #2: AC3, 48 KHz, stereo (2 ch), 192 kbps – итальянский
Формат субтитров: softsub (SRT)

MediaInfo

GeneralUnique ID                      : 113972166197413483724064439850607397048 (0x55BE3DA324D3F5D9E658F045188548B8)Complete name                  : D\torrents\Il male oscuro (1990, ru_DVO+it+en,it_sub).mkvFormat                         : MatroskaFormat version                 : Version 4 / Version 2File size                      : 2.06 GiBDuration                       : 1 h 53 minOverall bit rate               : 2 606 kb/sEncoded date                   : UTC 2023-06-21 09:04:48Writing application            : mkvmerge v77.0 ('Elemental') 64-bitWriting library                : libebml v1.4.4 + libmatroska v1.7.1
VideoID : 1Format : AVCFormat/Info : Advanced Video CodecFormat profile : High@L4.1Format settings, CABAC : YesFormat settings, RefFrames : 7 framesCodec ID : V_MPEG4/ISO/AVCDuration : 1 h 53 minBit rate : 2 220 kb/sWidth : 1 076 pixelsHeight : 648 pixelsDisplay aspect ratio : 5:3Frame rate mode : ConstantFrame rate : 24.000 FPSColor space : YUVChroma subsampling : 4:2:0Bit depth : 8 bitsScan type : ProgressiveBits/(Pixel*Frame) : 0.133Stream size : 1.76 GiB (85%)Writing library : x264 core 164 r3095 baee400Encoding settings : cabac=1 / ref=7 / deblock=1:-1:-1 / analyse=0x3:0x113 / me=umh / subme=9 / psy=1 / psy_rd=1.00:0.00 / mixed_ref=1 / me_range=24 / chroma_me=1 / trellis=1 / 8x8dct=1 / cqm=0 / deadzone=21,11 / fast_pskip=1 / chroma_qp_offset=-2 / threads=29 / lookahead_threads=2 / sliced_threads=0 / nr=0 / decimate=1 / interlaced=0 / bluray_compat=0 / constrained_intra=0 / bframes=7 / b_pyramid=2 / b_adapt=1 / b_bias=0 / direct=1 / weightb=1 / open_gop=0 / weightp=2 / keyint=240 / keyint_min=24 / scenecut=40 / intra_refresh=0 / rc_lookahead=40 / rc=2pass / mbtree=1 / bitrate=2220 / ratetol=1.0 / qcomp=0.60 / qpmin=0 / qpmax=69 / qpstep=4 / cplxblur=20.0 / qblur=0.5 / ip_ratio=1.40 / aq=1:1.00Default : YesForced : NoColor range : LimitedColor primaries : BT.709Transfer characteristics : BT.709Matrix coefficients : BT.709
Audio #1ID : 2Format : AC-3Format/Info : Audio Coding 3Format settings, Endianness : BigCodec ID : A_AC3Duration : 1 h 53 minBit rate mode : ConstantBit rate : 192 kb/sChannel(s) : 2 channelsChannel positions : Front: L RSampling rate : 48.0 kHzFrame rate : 31.250 FPS (1536 SPF)Bit depth : 16 bitsCompression mode : LossyStream size : 155 MiB (7%)Language : RussianService kind : Complete MainDefault : YesForced : No
Audio #2ID : 3Format : AC-3Format/Info : Audio Coding 3Format settings, Endianness : BigCodec ID : A_AC3Duration : 1 h 53 minBit rate mode : ConstantBit rate : 192 kb/sChannel(s) : 2 channelsChannel positions : Front: L RSampling rate : 48.0 kHzFrame rate : 31.250 FPS (1536 SPF)Bit depth : 16 bitsCompression mode : LossyStream size : 156 MiB (7%)Language : ItalianService kind : Complete MainDefault : NoForced : No
Text #1ID : 4Format : UTF-8Codec ID : S_TEXT/UTF8Codec ID/Info : UTF-8 Plain TextDuration : 5 min 30 sBit rate : 50 b/sCount of elements : 37Stream size : 2.02 KiB (0%)Language : RussianDefault : YesForced : No
Text #2ID : 5Format : UTF-8Codec ID : S_TEXT/UTF8Codec ID/Info : UTF-8 Plain TextDuration : 1 h 49 minBit rate : 56 b/sCount of elements : 1113Stream size : 45.6 KiB (0%)Language : EnglishDefault : NoForced : No
Text #3ID : 6Format : UTF-8Codec ID : S_TEXT/UTF8Codec ID/Info : UTF-8 Plain TextDuration : 1 h 49 minBit rate : 56 b/sCount of elements : 1079Stream size : 45.1 KiB (0%)Language : ItalianDefault : NoForced : No

Скриншот c названием фильма

МОИ РАЗДАЧИ НА РУТРЕКЕРЕ: https://torrentsland.com.ua/forum/tracker.php?rid=27390064
[Profile]  [PM] 
Display posts:    
Reply to topic

Current time is: 20-Jul 01:50

All times are UTC + 2



You cannot post new topics in this forum
You cannot reply to topics in this forum
You cannot edit your posts in this forum
You cannot delete your posts in this forum
You cannot vote in polls in this forum
You cannot attach files in this forum
You cannot download files in this forum