Победитель / Overcomer (Алекс Кендрик / Alex Kendrick) [2019, США, драма, семейный, спорт, BDRemux 1080p] MVO (BD EUR) + MVO Ukr + Sub (Rus, Ukr, Eng etc.) + Original Eng

Reply to topic
 
Author
Message

Faust ®

Gender: Unknown

Longevity: 12 years

Posts: 23187

Reputation: 0 [+] [-]

Faust · Post 24-Jun-2023 10:50

[Quote] 

Победитель
Overcomer

Страна: США
Жанр: Драма, семейный, спорт
Год выпуска: 2019
Продолжительность: 01:59:06
Перевод: Профессиональный (многоголосый закадровый) BD EUR
Субтитры: Русские, украинские, английские, французские, испанские .srt, немецкие, эстонские, латышские, литовские, финские, шведские, датские, норвежские .pgs
Оригинальная аудиодорожка: Английский
Режиссер: Алекс Кендрик / Alex Kendrick
В ролях: Алекс Кендрик, Присцилла Эванс Ширер, Камерон Арнетт, Шари Вьедманн, Aryn Wright-Thompson, Денис Армстронг, Джошуа Кендрик, Jack Sterner, Caleb Kendrick, Chuck Hasty
Описание: Жизнь тренера Джона Харрисона резко меняется, когда его школьная баскетбольная команда и мечты о чемпионате штата неожиданно накрываются медным тазом. Самый большой завод города внезапно закрывается и сотни семей уезжают. Директор школы просит Джона заменить тренера в спорте, который он не знает и не любит, Джон расстроен и сомневается, но все-таки берется за дело.

Тип релиза: BDRemux 1080p
Контейнер: MKV
Видео: MPEG-4 AVC, 1920:1080 (16:9), 24934 kbps, 23.976 fps
Аудио 1: АС3, 6 ch, 48 kHz, 640 kbps Русский MVO BD EUR
Аудио 2: АС3, 2 ch, 48 kHz, 192 kbps Украинский MVO
Аудио 3: DTS-HD MA, 6 ch, 48 kHz, 2214 kbps, 16-bit (DTS Core 6 ch, 48 kHz, 1509 kbps, 16-bit) Английский
Аудио 4: АС3, 2 ch, 48 kHz, 192 kbps Английский Commentary with Director/Writer Alex Kendrick and Writer Stephen Kendrick
Формат субтитров: SRT, PGS

MediaInfo

GeneralUnique ID                                : 58984213968496637617250093214828374158 (0x2C5FF246CC8BE66EDF9A1D7A02B8A88E)Complete name                            : G:\Overcomer.2019.REMUX.mkvFormat                                   : MatroskaFormat version                           : Version 4File size                                : 23.5 GiBDuration                                 : 1 h 59 minOverall bit rate mode                    : VariableOverall bit rate                         : 28.3 Mb/sEncoded date                             : UTC 2023-06-19 17:20:54Writing application                      : mkvmerge v20.0.0 ('I Am The Sun') 64-bitWriting library                          : libebml v1.3.5 + libmatroska v1.4.8
VideoID : 1Format : AVCFormat/Info : Advanced Video CodecFormat profile : High@L4.1Format settings : CABAC / 2 Ref FramesFormat settings, CABAC : YesFormat settings, Reference frames : 2 framesCodec ID : V_MPEG4/ISO/AVCDuration : 1 h 59 minBit rate mode : VariableBit rate : 24.9 Mb/sWidth : 1 920 pixelsHeight : 1 080 pixelsDisplay aspect ratio : 16:9Frame rate mode : ConstantFrame rate : 23.976 (24000/1001) FPSColor space : YUVChroma subsampling : 4:2:0Bit depth : 8 bitsScan type : ProgressiveBits/(Pixel*Frame) : 0.502Stream size : 20.7 GiB (88%)Language : EnglishDefault : YesForced : No
Audio #1ID : 2Format : AC-3Format/Info : Audio Coding 3Commercial name : Dolby DigitalCodec ID : A_AC3Duration : 1 h 59 minBit rate mode : ConstantBit rate : 640 kb/sChannel(s) : 6 channelsChannel layout : L R C LFE Ls RsSampling rate : 48.0 kHzFrame rate : 31.250 FPS (1536 SPF)Compression mode : LossyStream size : 545 MiB (2%)Title : MVO BD EURLanguage : RussianService kind : Complete MainDefault : YesForced : No
Audio #2ID : 3Format : AC-3Format/Info : Audio Coding 3Commercial name : Dolby DigitalCodec ID : A_AC3Duration : 1 h 59 minBit rate mode : ConstantBit rate : 192 kb/sChannel(s) : 2 channelsChannel layout : L RSampling rate : 48.0 kHzFrame rate : 31.250 FPS (1536 SPF)Compression mode : LossyStream size : 164 MiB (1%)Title : MVOLanguage : UkrainianService kind : Complete MainDefault : NoForced : No
Audio #3ID : 4Format : DTS XLLFormat/Info : Digital Theater SystemsCommercial name : DTS-HD Master AudioCodec ID : A_DTSDuration : 1 h 59 minBit rate mode : VariableBit rate : 2 214 kb/sChannel(s) : 6 channelsChannel layout : C L R Ls Rs LFESampling rate : 48.0 kHzFrame rate : 93.750 FPS (512 SPF)Bit depth : 16 bitsCompression mode : LosslessStream size : 1.84 GiB (8%)Language : EnglishDefault : NoForced : No
Audio #4ID : 5Format : AC-3Format/Info : Audio Coding 3Commercial name : Dolby DigitalFormat settings : Dolby SurroundCodec ID : A_AC3Duration : 1 h 59 minBit rate mode : ConstantBit rate : 192 kb/sChannel(s) : 2 channelsChannel layout : L RSampling rate : 48.0 kHzFrame rate : 31.250 FPS (1536 SPF)Compression mode : LossyStream size : 164 MiB (1%)Title : Commentary with Director/Writer Alex Kendrick and Writer Stephen KendrickLanguage : EnglishService kind : Complete MainDefault : NoForced : No
Text #1ID : 6Format : UTF-8Codec ID : S_TEXT/UTF8Codec ID/Info : UTF-8 Plain TextDuration : 1 h 58 minBit rate : 85 b/sCount of elements : 1606Stream size : 73.7 KiB (0%)Language : RussianDefault : NoForced : No
Text #2ID : 7Format : UTF-8Codec ID : S_TEXT/UTF8Codec ID/Info : UTF-8 Plain TextDuration : 1 h 58 minBit rate : 88 b/sCount of elements : 1611Stream size : 76.6 KiB (0%)Language : UkrainianDefault : NoForced : No
Text #3ID : 8Format : UTF-8Codec ID : S_TEXT/UTF8Codec ID/Info : UTF-8 Plain TextDuration : 1 h 58 minBit rate : 66 b/sCount of elements : 1918Stream size : 57.4 KiB (0%)Language : EnglishDefault : NoForced : No
Text #4ID : 9Format : UTF-8Codec ID : S_TEXT/UTF8Codec ID/Info : UTF-8 Plain TextDuration : 1 h 58 minBit rate : 46 b/sCount of elements : 1531Stream size : 40.3 KiB (0%)Language : FrenchDefault : NoForced : No
Text #5ID : 10Format : UTF-8Codec ID : S_TEXT/UTF8Codec ID/Info : UTF-8 Plain TextDuration : 1 h 58 minBit rate : 53 b/sCount of elements : 1609Stream size : 46.5 KiB (0%)Language : SpanishDefault : NoForced : No
Text #6ID : 11Format : PGSMuxing mode : zlibCodec ID : S_HDMV/PGSCodec ID/Info : Picture based subtitle format used on BDs/HD-DVDsDuration : 1 h 58 minBit rate : 36.7 kb/sCount of elements : 3218Stream size : 31.0 MiB (0%)Language : GermanDefault : NoForced : No
Text #7ID : 12Format : PGSMuxing mode : zlibCodec ID : S_HDMV/PGSCodec ID/Info : Picture based subtitle format used on BDs/HD-DVDsDuration : 1 h 58 minBit rate : 31.7 kb/sCount of elements : 3218Stream size : 26.8 MiB (0%)Language : EstonianDefault : NoForced : No
Text #8ID : 13Format : PGSMuxing mode : zlibCodec ID : S_HDMV/PGSCodec ID/Info : Picture based subtitle format used on BDs/HD-DVDsDuration : 1 h 58 minBit rate : 31.4 kb/sCount of elements : 3216Stream size : 26.5 MiB (0%)Language : LatvianDefault : NoForced : No
Text #9ID : 14Format : PGSMuxing mode : zlibCodec ID : S_HDMV/PGSCodec ID/Info : Picture based subtitle format used on BDs/HD-DVDsDuration : 1 h 58 minBit rate : 30.1 kb/sCount of elements : 3218Stream size : 25.5 MiB (0%)Language : LithuanianDefault : NoForced : No
Text #10ID : 15Format : PGSMuxing mode : zlibCodec ID : S_HDMV/PGSCodec ID/Info : Picture based subtitle format used on BDs/HD-DVDsDuration : 1 h 58 minBit rate : 34.6 kb/sCount of elements : 2678Stream size : 29.2 MiB (0%)Language : FinnishDefault : NoForced : No
Text #11ID : 16Format : PGSMuxing mode : zlibCodec ID : S_HDMV/PGSCodec ID/Info : Picture based subtitle format used on BDs/HD-DVDsDuration : 1 h 58 minBit rate : 30.8 kb/sCount of elements : 3022Stream size : 26.1 MiB (0%)Language : SwedishDefault : NoForced : No
Text #12ID : 17Format : PGSMuxing mode : zlibCodec ID : S_HDMV/PGSCodec ID/Info : Picture based subtitle format used on BDs/HD-DVDsDuration : 1 h 58 minBit rate : 30.3 kb/sCount of elements : 3218Stream size : 25.6 MiB (0%)Language : DanishDefault : NoForced : No
Text #13ID : 18Format : PGSMuxing mode : zlibCodec ID : S_HDMV/PGSCodec ID/Info : Picture based subtitle format used on BDs/HD-DVDsDuration : 1 h 58 minBit rate : 30.0 kb/sCount of elements : 2430Stream size : 25.4 MiB (0%)Language : NorwegianDefault : NoForced : No
Menu00:00:00.000 : en:Chapter 100:05:08.850 : en:Chapter 200:13:25.262 : en:Chapter 300:18:09.630 : en:Chapter 400:26:10.151 : en:Chapter 500:32:40.667 : en:Chapter 600:40:05.319 : en:Chapter 700:46:09.600 : en:Chapter 800:52:48.415 : en:Chapter 900:59:34.988 : en:Chapter 1001:08:04.080 : en:Chapter 1101:14:54.948 : en:Chapter 1201:23:59.325 : en:Chapter 1301:33:09.333 : en:Chapter 1401:44:13.747 : en:Chapter 1501:51:16.169 : en:Chapter 16
[Profile]  [PM] 
Display posts:    
Reply to topic

Current time is: 20-Jul 01:49

All times are UTC + 2



You cannot post new topics in this forum
You cannot reply to topics in this forum
You cannot edit your posts in this forum
You cannot delete your posts in this forum
You cannot vote in polls in this forum
You cannot attach files in this forum
You cannot download files in this forum