Джордж Форман: Несокрушимый / Big George Foreman (Джордж Тиллман мл. / George Tillman Jr.) [2023, США, драма, биография, спорт, BDRemux 1080p] 2х MVO (HDRezka Studio, Jaskier) + MVO Ukr + Sub (Rus, Eng etc.) + Original Eng

Reply to topic
 
Author
Message

Faust ®

Gender: Unknown

Longevity: 12 years

Posts: 23217

Reputation: 0 [+] [-]

Faust · Post 24-Jun-2023 10:50

[Quote] 

Джордж Форман: Несокрушимый
Big George Foreman
Big George Foreman: The Miraculous Story of the Once
and Future Heavyweight Champion of the World

Страна: США
Жанр: Драма, биография, спорт
Год выпуска: 2023
Продолжительность: 02:09:10
Перевод 1: Профессиональный (многоголосый закадровый) HDRezka Studio
Перевод 2: Профессиональный (многоголосый закадровый) Jaskier
Субтитры: Русские (forced, full Jaskier), украинские (forced), английские, французские, испанские, эстонские, латышские, литовские, финские, шведские, датские, норвежские
Оригинальная аудиодорожка: Английский
Режиссер: Джордж Тиллман мл. / George Tillman Jr.
В ролях: Крис Дэвис, Жасмин Мэтьюз, Салливан Джонс, Лоуренс Гиллиард мл., Соня Сон, Форест Уитакер, Джон Магаро, Сэм Трэммелл, Шеин Момпремьер, Роберт Чиккини
Описание: Джордж Форман — легендарный боксёр-профессионал в тяжёлом весе. Проведя детство в бедности, Форман направил всю природную агрессию на достижение титулов золотого медалиста Олимпийских игр и чемпиона мира в тяжёлом весе. Спустя годы успешной карьеры, пережив околосмертный опыт, Форман променял боксёрский ринг на проповедничество и служение церкви. Но увидев нужду боксёрского общества в духовном и финансовом руководстве, Джордж Форман вернулся на ринг и снова творил историю, став старейшим чемпионом мира в тяжёлом весе и доказав, что в боксе возможно всё, несмотря на возраст.
Спасибо kro44i за дорожку

Тип релиза: BDRemux 1080p
Контейнер: MKV
Видео: MPEG-4 AVC, 1080p, 1920:1080 (16:9), 24886 kbps, 23.976 fps
Аудио 1: АС3, 6 ch, 48 kHz, 448 kbps Русский MVO HDRezka Studio
Аудио 2: АС3, 6 ch, 48 kHz, 448 kbps Русский MVO Jaskier
Аудио 3: АС3, 6 ch, 48 kHz, 384 kbps Украинский MVO DniproFilm/HDRezka Studio
Аудио 4: DTS-HD MA, 6 ch, 48 kHz, 2183 kbps, 16-bit (DTS Core 6 ch, 48 kHz, 1509 kbps, 16-bit) Английский
Формат субтитров: SRT

MediaInfo

GeneralUnique ID                                : 247026156605229344725629502440061385596 (0xB9D781D834B5C0B6DDBA7082CF4DBB7C)Complete name                            : G:\Big.George.Foreman.2023.REMUX.mkvFormat                                   : MatroskaFormat version                           : Version 4File size                                : 25.6 GiBDuration                                 : 2 h 9 minOverall bit rate mode                    : VariableOverall bit rate                         : 28.4 Mb/sEncoded date                             : UTC 2023-06-23 16:21:08Writing application                      : mkvmerge v20.0.0 ('I Am The Sun') 64-bitWriting library                          : libebml v1.3.5 + libmatroska v1.4.8
VideoID : 1Format : AVCFormat/Info : Advanced Video CodecFormat profile : High@L4.1Format settings : CABAC / 2 Ref FramesFormat settings, CABAC : YesFormat settings, Reference frames : 2 framesFormat settings, GOP : M=1, N=10Codec ID : V_MPEG4/ISO/AVCDuration : 2 h 9 minBit rate mode : VariableBit rate : 24.9 Mb/sWidth : 1 920 pixelsHeight : 1 080 pixelsDisplay aspect ratio : 16:9Frame rate mode : ConstantFrame rate : 23.976 (24000/1001) FPSColor space : YUVChroma subsampling : 4:2:0Bit depth : 8 bitsScan type : ProgressiveBits/(Pixel*Frame) : 0.501Stream size : 22.5 GiB (88%)Language : EnglishDefault : YesForced : No
Audio #1ID : 2Format : AC-3Format/Info : Audio Coding 3Commercial name : Dolby DigitalCodec ID : A_AC3Duration : 2 h 9 minBit rate mode : ConstantBit rate : 448 kb/sChannel(s) : 6 channelsChannel layout : L R C LFE Ls RsSampling rate : 48.0 kHzFrame rate : 31.250 FPS (1536 SPF)Compression mode : LossyStream size : 414 MiB (2%)Title : MVO HDRezka StudioLanguage : RussianService kind : Complete MainDefault : YesForced : No
Audio #2ID : 3Format : AC-3Format/Info : Audio Coding 3Commercial name : Dolby DigitalCodec ID : A_AC3Duration : 2 h 9 minBit rate mode : ConstantBit rate : 448 kb/sChannel(s) : 6 channelsChannel layout : L R C LFE Ls RsSampling rate : 48.0 kHzFrame rate : 31.250 FPS (1536 SPF)Compression mode : LossyStream size : 414 MiB (2%)Title : MVO JaskierLanguage : RussianService kind : Complete MainDefault : NoForced : No
Audio #3ID : 4Format : AC-3Format/Info : Audio Coding 3Commercial name : Dolby DigitalCodec ID : A_AC3Duration : 2 h 9 minBit rate mode : ConstantBit rate : 384 kb/sChannel(s) : 6 channelsChannel layout : L R C LFE Ls RsSampling rate : 48.0 kHzFrame rate : 31.250 FPS (1536 SPF)Compression mode : LossyStream size : 355 MiB (1%)Title : MVO DniproFilm/HDRezka StudioLanguage : UkrainianService kind : Complete MainDefault : NoForced : No
Audio #4ID : 5Format : DTS XLLFormat/Info : Digital Theater SystemsCommercial name : DTS-HD Master AudioCodec ID : A_DTSDuration : 2 h 9 minBit rate mode : VariableBit rate : 2 183 kb/sChannel(s) : 6 channelsChannel layout : C L R Ls Rs LFESampling rate : 48.0 kHzFrame rate : 93.750 FPS (512 SPF)Bit depth : 16 bitsCompression mode : LosslessStream size : 1.97 GiB (8%)Language : EnglishDefault : NoForced : No
Text #1ID : 6Format : UTF-8Codec ID : S_TEXT/UTF8Codec ID/Info : UTF-8 Plain TextDuration : 2 h 2 minBit rate : 3 b/sCount of elements : 51Stream size : 2.79 KiB (0%)Title : forcedLanguage : RussianDefault : YesForced : No
Text #2ID : 7Format : UTF-8Codec ID : S_TEXT/UTF8Codec ID/Info : UTF-8 Plain TextDuration : 2 h 2 minBit rate : 3 b/sCount of elements : 45Stream size : 2.79 KiB (0%)Title : forcedLanguage : UkrainianDefault : NoForced : No
Text #3ID : 8Format : UTF-8Codec ID : S_TEXT/UTF8Codec ID/Info : UTF-8 Plain TextDuration : 2 h 3 minBit rate : 82 b/sCount of elements : 1659Stream size : 74.8 KiB (0%)Title : JaskierLanguage : RussianDefault : NoForced : No
Text #4ID : 9Format : UTF-8Codec ID : S_TEXT/UTF8Codec ID/Info : UTF-8 Plain TextDuration : 2 h 0 minBit rate : 55 b/sCount of elements : 1518Stream size : 48.9 KiB (0%)Language : EnglishDefault : NoForced : No
Text #5ID : 10Format : UTF-8Codec ID : S_TEXT/UTF8Codec ID/Info : UTF-8 Plain TextDuration : 2 h 8 minBit rate : 46 b/sCount of elements : 1517Stream size : 44.0 KiB (0%)Language : FrenchDefault : NoForced : No
Text #6ID : 11Format : UTF-8Codec ID : S_TEXT/UTF8Codec ID/Info : UTF-8 Plain TextDuration : 2 h 8 minBit rate : 52 b/sCount of elements : 1606Stream size : 49.7 KiB (0%)Language : SpanishDefault : NoForced : No
Text #7ID : 12Format : UTF-8Codec ID : S_TEXT/UTF8Codec ID/Info : UTF-8 Plain TextDuration : 2 h 8 minBit rate : 52 b/sCount of elements : 1575Stream size : 49.0 KiB (0%)Language : EstonianDefault : NoForced : No
Text #8ID : 13Format : UTF-8Codec ID : S_TEXT/UTF8Codec ID/Info : UTF-8 Plain TextDuration : 2 h 8 minBit rate : 50 b/sCount of elements : 1585Stream size : 47.6 KiB (0%)Language : LatvianDefault : NoForced : No
Text #9ID : 14Format : UTF-8Codec ID : S_TEXT/UTF8Codec ID/Info : UTF-8 Plain TextDuration : 2 h 8 minBit rate : 54 b/sCount of elements : 1585Stream size : 51.0 KiB (0%)Language : LithuanianDefault : NoForced : No
Text #10ID : 15Format : UTF-8Codec ID : S_TEXT/UTF8Codec ID/Info : UTF-8 Plain TextDuration : 2 h 8 minBit rate : 51 b/sCount of elements : 1444Stream size : 48.8 KiB (0%)Language : FinnishDefault : NoForced : No
Text #11ID : 16Format : UTF-8Codec ID : S_TEXT/UTF8Codec ID/Info : UTF-8 Plain TextDuration : 2 h 8 minBit rate : 50 b/sCount of elements : 1418Stream size : 47.3 KiB (0%)Language : SwedishDefault : NoForced : No
Text #12ID : 17Format : UTF-8Codec ID : S_TEXT/UTF8Codec ID/Info : UTF-8 Plain TextDuration : 2 h 8 minBit rate : 46 b/sCount of elements : 1510Stream size : 43.8 KiB (0%)Language : DanishDefault : NoForced : No
Text #13ID : 18Format : UTF-8Codec ID : S_TEXT/UTF8Codec ID/Info : UTF-8 Plain TextDuration : 2 h 8 minBit rate : 47 b/sCount of elements : 1229Stream size : 44.7 KiB (0%)Language : NorwegianDefault : NoForced : No
Menu00:00:00.000 : en:Chapter 0100:11:14.632 : en:Chapter 0200:16:36.286 : en:Chapter 0300:26:14.531 : en:Chapter 0400:32:10.428 : en:Chapter 0500:40:02.233 : en:Chapter 0600:48:38.206 : en:Chapter 0700:54:13.917 : en:Chapter 0801:01:34.649 : en:Chapter 0901:08:17.635 : en:Chapter 1001:15:26.480 : en:Chapter 1101:22:24.856 : en:Chapter 1201:27:16.522 : en:Chapter 1301:35:34.270 : en:Chapter 1401:43:04.761 : en:Chapter 1501:53:02.525 : en:Chapter 16

Скриншоты


[Profile]  [PM] 
Display posts:    
Reply to topic

Current time is: 25-Jul 04:58

All times are UTC + 2



You cannot post new topics in this forum
You cannot reply to topics in this forum
You cannot edit your posts in this forum
You cannot delete your posts in this forum
You cannot vote in polls in this forum
You cannot attach files in this forum
You cannot download files in this forum