Ради Лесли / To Leslie (Майкл Моррис / Michael Morris) [2022, США, драма, BDRemux 1080p] MVO (Jaskier) + Sub (Rus, Eng etc.) + Original Eng

Reply to topic
 
Author
Message

Faust ®

Gender: Unknown

Longevity: 12 years

Posts: 23187

Reputation: 0 [+] [-]

Faust · Post 24-Jun-2023 10:50

[Quote] 

Ради Лесли
To Leslie

Страна: США
Жанр: Драма
Год выпуска: 2022
Продолжительность: 01:59:27
Перевод: Профессиональный (многоголосый закадровый) Jaskier ненормативная лексика
Субтитры: Русские ненормативная лексика, английские, французские, испанские, финские, шведские, датские, норвежские .srt, китайские .pgs
Оригинальная аудиодорожка: Английский
Режиссер: Майкл Моррис / Michael Morris
В ролях: Андреа Райзборо, Эллисон Дженни, Марк Мэрон, Андре Ройо, Оуэн Тиг, Стивен Рут, Джеймс Хеберт, Кэтфиш Жан, Скотт Субионо, Блейк Роббинс
Описание: Мать-одиночка из Техаса срывает куш в лотерее, но очень быстро спускает выигрыш, бросившись во все тяжкие и забыв о своём сыне. Спустя несколько лет она остаётся ни с чем, но всё равно пытается начать новую жизнь и найти искупление за своё прошлое.
Спасибо kro44i за дорожку

Тип релиза: BDRemux 1080p
Контейнер: MKV
Видео: MPEG-4 AVC, 1080p, 1920:1080 (16:9), 21576 kbps, 24.000 fps
Аудио 1: АС3, 6 ch, 48 kHz, 448 kbps Русский MVO Jaskier ненормативная лексика
Аудио 2: DTS-HD MA, 6 ch, 48 kHz, 1783 kbps, 16-bit (DTS Core 6 ch, 48 kHz, 1509 kbps, 16-bit) Английский
Формат субтитров: SRT, PGS

MediaInfo

GeneralUnique ID                                : 296587869045472098607664530040144359778 (0xDF20BEEDA4FEC41682E643B4F8BD7162)Complete name                            : G:\To.Leslie.2022.REMUX.mkvFormat                                   : MatroskaFormat version                           : Version 4File size                                : 19.4 GiBDuration                                 : 1 h 59 minOverall bit rate mode                    : VariableOverall bit rate                         : 23.2 Mb/sEncoded date                             : UTC 2023-06-23 11:14:08Writing application                      : mkvmerge v20.0.0 ('I Am The Sun') 64-bitWriting library                          : libebml v1.3.5 + libmatroska v1.4.8
VideoID : 1Format : AVCFormat/Info : Advanced Video CodecFormat profile : High@L4.1Format settings : CABAC / 4 Ref FramesFormat settings, CABAC : YesFormat settings, Reference frames : 4 framesCodec ID : V_MPEG4/ISO/AVCDuration : 1 h 59 minBit rate mode : VariableBit rate : 21.5 Mb/sMaximum bit rate : 32.0 Mb/sWidth : 1 920 pixelsHeight : 1 080 pixelsDisplay aspect ratio : 16:9Frame rate mode : ConstantFrame rate : 24.000 FPSStandard : ComponentColor space : YUVChroma subsampling : 4:2:0Bit depth : 8 bitsScan type : ProgressiveBits/(Pixel*Frame) : 0.432Stream size : 17.5 GiB (90%)Writing library : x264 core 155Encoding settings : cabac=1 / ref=4 / deblock=1:0:0 / analyse=0x3:0x113 / me=hex / subme=4 / psy=1 / psy_rd=1.00:0.00 / mixed_ref=0 / me_range=16 / chroma_me=1 / trellis=1 / 8x8dct=1 / cqm=1 / deadzone=21,11 / fast_pskip=1 / chroma_qp_offset=0 / threads=24 / lookahead_threads=6 / sliced_threads=0 / slices=4 / nr=0 / decimate=1 / interlaced=0 / minigop=1 / stitchable=1 / constrained_intra=0 / bframes=3 / b_pyramid=0 / b_adapt=1 / b_bias=0 / direct=1 / weightb=1 / open_gop=1 / weightp=1 / keyint=24 / keyint_min=1 / scenecut=40 / intra_refresh=0 / rc_lookahead=20 / rc=abr / mbtree=1 / bitrate=21500 / ratetol=1.0 / qcomp=0.60 / qpmin=1 / qpmax=69 / qpstep=4 / vbv_maxrate=32000 / vbv_bufsize=30000 / nal_hrd=vbr / filler=0 / ip_ratio=1.40 / aq=1:1.00Language : EnglishDefault : YesForced : NoColor range : LimitedColor primaries : BT.709Transfer characteristics : BT.709Matrix coefficients : BT.709
Audio #1ID : 2Format : AC-3Format/Info : Audio Coding 3Commercial name : Dolby DigitalCodec ID : A_AC3Duration : 1 h 59 minBit rate mode : ConstantBit rate : 448 kb/sChannel(s) : 6 channelsChannel layout : L R C LFE Ls RsSampling rate : 48.0 kHzFrame rate : 31.250 FPS (1536 SPF)Compression mode : LossyStream size : 383 MiB (2%)Title : MVO Jaskier ненормативная лексикаLanguage : RussianService kind : Complete MainDefault : YesForced : No
Audio #2ID : 3Format : DTS XLLFormat/Info : Digital Theater SystemsCommercial name : DTS-HD Master AudioCodec ID : A_DTSDuration : 1 h 59 minBit rate mode : VariableBit rate : 1 783 kb/sChannel(s) : 6 channelsChannel layout : C L R Ls Rs LFESampling rate : 48.0 kHzFrame rate : 93.750 FPS (512 SPF)Bit depth : 16 bitsCompression mode : LosslessStream size : 1.49 GiB (8%)Language : EnglishDefault : NoForced : No
Text #1ID : 4Format : UTF-8Codec ID : S_TEXT/UTF8Codec ID/Info : UTF-8 Plain TextDuration : 1 h 52 minBit rate : 52 b/sCount of elements : 1334Stream size : 43.3 KiB (0%)Title : ненормативная лексикаLanguage : RussianDefault : NoForced : No
Text #2ID : 5Format : UTF-8Codec ID : S_TEXT/UTF8Codec ID/Info : UTF-8 Plain TextDuration : 1 h 57 minBit rate : 48 b/sCount of elements : 1552Stream size : 42.2 KiB (0%)Language : EnglishDefault : NoForced : No
Text #3ID : 6Format : UTF-8Codec ID : S_TEXT/UTF8Codec ID/Info : UTF-8 Plain TextDuration : 1 h 52 minBit rate : 44 b/sCount of elements : 1216Stream size : 36.9 KiB (0%)Language : FrenchDefault : NoForced : No
Text #4ID : 7Format : UTF-8Codec ID : S_TEXT/UTF8Codec ID/Info : UTF-8 Plain TextDuration : 1 h 57 minBit rate : 53 b/sCount of elements : 1555Stream size : 46.3 KiB (0%)Language : SpanishDefault : NoForced : No
Text #5ID : 8Format : UTF-8Codec ID : S_TEXT/UTF8Codec ID/Info : UTF-8 Plain TextDuration : 1 h 52 minBit rate : 38 b/sCount of elements : 891Stream size : 32.0 KiB (0%)Language : FinnishDefault : NoForced : No
Text #6ID : 9Format : UTF-8Codec ID : S_TEXT/UTF8Codec ID/Info : UTF-8 Plain TextDuration : 1 h 52 minBit rate : 38 b/sCount of elements : 894Stream size : 31.9 KiB (0%)Language : SwedishDefault : NoForced : No
Text #7ID : 10Format : UTF-8Codec ID : S_TEXT/UTF8Codec ID/Info : UTF-8 Plain TextDuration : 1 h 53 minBit rate : 37 b/sCount of elements : 839Stream size : 31.3 KiB (0%)Language : DanishDefault : NoForced : No
Text #8ID : 11Format : UTF-8Codec ID : S_TEXT/UTF8Codec ID/Info : UTF-8 Plain TextDuration : 1 h 52 minBit rate : 35 b/sCount of elements : 891Stream size : 29.5 KiB (0%)Language : NorwegianDefault : NoForced : No
Text #9ID : 12Format : PGSMuxing mode : zlibCodec ID : S_HDMV/PGSCodec ID/Info : Picture based subtitle format used on BDs/HD-DVDsDuration : 1 h 58 minBit rate : 27.3 kb/sCount of elements : 3038Stream size : 23.2 MiB (0%)Language : ChineseDefault : NoForced : No
Menu00:00:00.000 : en:Chapter 0100:10:38.042 : en:Chapter 0200:19:37.500 : en:Chapter 0300:30:24.458 : en:Chapter 0400:40:58.542 : en:Chapter 0500:50:19.625 : en:Chapter 0600:59:47.333 : en:Chapter 0701:08:08.667 : en:Chapter 0801:18:45.542 : en:Chapter 0901:28:11.208 : en:Chapter 1001:38:29.792 : en:Chapter 1101:47:41.333 : en:Chapter 12

Скриншоты


[Profile]  [PM] 
Display posts:    
Reply to topic

Current time is: 20-Jul 01:47

All times are UTC + 2



You cannot post new topics in this forum
You cannot reply to topics in this forum
You cannot edit your posts in this forum
You cannot delete your posts in this forum
You cannot vote in polls in this forum
You cannot attach files in this forum
You cannot download files in this forum