Лесная принцесса / The Prince of the Forest (Margaux Solinas / Марго Солинас) [2020, Документальный, природа, флора, фауна, HDTV 1080i]

Reply to topic
 
Author
Message

Atila ®

Gender: Unknown

Longevity: 12 years

Posts: 3268

Reputation: 0 [+] [-]

Atila · Post 24-Jun-2023 10:50

[Quote] 

Лесная принцесса / The Prince of the Forest
Год выпуска: 2020
Страна: Франция
Студия: Bonne Pioche, France Televisions, Ushuia
Жанр: Документальный, природа, флора, фауна
Продолжительность: 00:48:12
Перевод: Студийный (одноголосый закадровый)
Режиссер: Margaux Solinas / Марго Солинас
Описание: Путешествие в царство лисиц. Проследите за блужданием лисы и ее встречами с другими животными на протяжении четырех сезонов во французских лесах.
Сэмпл: https://www.sendspace.com/file/74ipyx
Тип релиза: HDTV 1080i
Контейнер: TS
Видео: 1920x1080 (16:9), 25 fps, AVC (H.264), Main@L4, 7981 kbps, 0.154 bit/pixel
Аудио: Русский 48 kHz, MPEG Layer 2, 2 ch, ~192.00 kbps avg

MediaInfo

Complete name               : F:\Наладки\Лесная принцесса _ 1080i.tsFormat                      : MPEG-TSFile size                   : 2.90 GiBDuration                    : 48 min 12 sOverall bit rate mode       : VariableOverall bit rate            : 8 600 kb/s
VideoID : 2857 (0xB29)Menu ID : 17006 (0x426E)Format : AVCFormat/Info : Advanced Video CodecFormat profile : Main@L4Format settings : CABAC / 3 Ref FramesFormat settings, CABAC : YesFormat settings, Reference : 3 framesCodec ID : 27Duration : 48 min 12 sBit rate : 7 981 kb/sWidth : 1 920 pixelsHeight : 1 080 pixelsDisplay aspect ratio : 16:9Frame rate : 25.000 FPSColor space : YUVChroma subsampling : 4:2:0Bit depth : 8 bitsScan type : InterlacedScan type, store method : Separated fieldsScan order : Top Field FirstBits/(Pixel*Frame) : 0.154Stream size : 2.69 GiB (93%)Color range : LimitedColor primaries : BT.709Transfer characteristics : BT.709Matrix coefficients : BT.709
AudioID : 2858 (0xB2A)Menu ID : 17006 (0x426E)Format : MPEG AudioFormat version : Version 1Format profile : Layer 2Codec ID : 3Duration : 48 min 12 sBit rate mode : ConstantBit rate : 192 kb/sChannel(s) : 2 channelsSampling rate : 48.0 kHzFrame rate : 41.667 FPS (1152 SPF)Compression mode : LossyDelay relative to video : -80 msStream size : 66.2 MiB (2%)Language : Russian

Скриншоты


[Profile]  [PM] 
Display posts:    
Reply to topic

Current time is: 25-Jul 04:56

All times are UTC + 2



You cannot post new topics in this forum
You cannot reply to topics in this forum
You cannot edit your posts in this forum
You cannot delete your posts in this forum
You cannot vote in polls in this forum
You cannot attach files in this forum
You cannot download files in this forum