Последний ужин / The last supper (Стэйси Тайтл / Stacy Title) [1995, США, драма, сатира, триллер, BDRemux 1080p] [FRA Transfer] DVO (R5) + AVO (Санаев) + Sub (Eng) + Original (Eng)

Reply to topic
 
Author
Message

Faust ®

Gender: Unknown

Longevity: 12 years

Posts: 23217

Reputation: 0 [+] [-]

Faust · Post 24-Jun-2023 10:50

[Quote] 

Последний ужин / The last supper
Страна: США
Студия: Columbia Pictures Corporation, The Vault, WF/X
Жанр: драма, сатира, триллер
Год выпуска: 1995
Продолжительность: 01:31:32
Перевод 1: Профессиональный (двухголосый закадровый) - R5
Перевод 2: Авторский (одноголосый закадровый) - Павел Санаев
Субтитры: английские (полные), английские (для слабослышащих)
Оригинальная аудиодорожка: английский
Режиссер: Стэйси Тайтл / Stacy Title
В ролях: Аннабет Гиш, Рон Перлман, Кэмерон Диас, Джонатан Пеннер, Кортни Б. Вэнс, Рон Элдард, Билл Пэкстон, Нора Данн, Дэн Розен, Эмбер Тейлор, Мэтт Купер, Чарльз Дёрнинг, Марк Хэрмон, Джил Сегел, Рэйчел Шагалл, Уоррен Хатчерсон, Николас Сэдлер, Стефен Уэлш, Эми Хилл, Карли Вебер, Джейсон Александер, Фредерик Лоуренс, Памела Гин, Брин Эрин, Ларри Вейнберг, Элизабет Мосс, Сюзанн Шмидт
Описание: Группа аспирантов прогрессивных взглядов взяла себе в привычку собираться на ужин, куда они приглашают реакционеров, выступающих против того, что они расценивают как не совпадающее с их демократическим мировоззрением. Приглашенных они убивают цианистым калием, подлитым в напитки…
Доп. информация: Найденный в сети блюр, содержащий английский оригинал и английские субтитры двух видов, преобразован в ремукс добавлением двух переводов из релиза.
Сэмпл: https://disk.yandex.ru/i/oyNTfVLWjXGNxg
Тип релиза: BDRemux 1080p
Контейнер: MKV
Видео: ~ 23013 Кбит/сек, AVC 1920*1080 (16:9), 23,976 кадра/сек, CABAC
Аудио 1: Русский, 192 Кбит/сек, 48,0 КГц, 2 канала, AC-3 - R5
Аудио 2: Русский, 192 Кбит/сек, 48,0 КГц, 2 канала, AC-3 - Санаев
Аудио 3: Английский, DTS MA: 2.0 / 48,0 КГц / 1736 Кбит/сек / 16 бит / (DTS Core: 2.0 / 48,0 КГц / 1509 Кбит/сек / 16 бит)
Формат субтитров: softsub (SRT)

MediaInfo

ОбщееУникальный идентификатор                 : 204513649662812432880901401917163061300 (0x99DBE56CD9547D723892A99C821C4034)Полное имя                               : D:\MONAR\Видео\Художественные фильмы\Зарубежное кино\Последний ужин (1995) BDRemux 1080p.mkvФормат                                   : MatroskaВерсия формата                           : Version 4Размер файла                             : 16,1 ГбайтПродолжительность                        : 1 ч. 31 м.Режим общего битрейта                    : ПеременныйОбщий поток                              : 25,1 Мбит/секЧастота кадров                           : 23,976 кадра/секНазвание фильма                          : The last supper (1995)Дата кодирования                         : 2023-06-12 03:40:42 UTCПрограмма кодирования                    : mkvmerge v77.0 ('Elemental') 64-bitБиблиотека кодирования                   : libebml v1.4.4 + libmatroska v1.7.1
ВидеоИдентификатор : 1Формат : AVCФормат/Информация : Advanced Video CodecПрофиль формата : High@L4.1Настройки формата : CABAC / 3 Ref FramesПараметр CABAC формата : ДаПараметр RefFrames формата : 3 кадраИдентификатор кодека : V_MPEG4/ISO/AVCПродолжительность : 1 ч. 31 м.Вид битрейта : ПеременныйБитрейт : 24,0 Мбит/секМаксимальный битрейт : 40,0 Мбит/секШирина : 1 920 пикселейВысота : 1 080 пикселейСоотношение сторон : 16:9Режим частоты кадров : ПостоянныйЧастота кадров : 23,976 (24000/1001) кадра/секЦветовое пространство : YUVСубдискретизация насыщенности : 4:2:0Битовая глубина : 8 битТип развёртки : ПрогрессивнаяБит/(Пиксели*Кадры) : 0.483Размер потока : 14,7 Гбайт (92%)Библиотека кодирования : x264 core 148 r2694bm 3b70645Настройки программы : cabac=1 / ref=4 / deblock=1:-1:-1 / analyse=0x3:0x133 / me=umh / subme=9 / psy=1 / psy_rd=1.00:0.15 / mixed_ref=1 / me_range=16 / chroma_me=1 / trellis=2 / 8x8dct=1 / cqm=0 / deadzone=21,11 / fast_pskip=1 / chroma_qp_offset=-3 / threads=12 / lookahead_threads=1 / sliced_threads=0 / slices=4 / nr=0 / decimate=1 / interlaced=0 / bluray_compat=1 / constrained_intra=0 / bframes=3 / b_pyramid=1 / b_adapt=2 / b_bias=0 / direct=3 / weightb=1 / open_gop=1 / weightp=1 / keyint=24 / keyint_min=1 / scenecut=40 / intra_refresh=0 / rc_lookahead=24 / rc=abr / mbtree=1 / bitrate=24000 / ratetol=1.0 / qcomp=0.60 / qpmin=0 / qpmax=69 / qpstep=4 / vbv_maxrate=40000 / vbv_bufsize=30000 / nal_hrd=vbr / filler=0 / ip_ratio=1.40 / aq=1:1.00Язык : EnglishDefault : ДаForced : НетЦветовой диапазон : LimitedОсновные цвета : BT.709Характеристики трансфера : BT.709Коэффициенты матрицы : BT.709
Аудио #1Идентификатор : 2Формат : DTS XLLФормат/Информация : Digital Theater SystemsКоммерческое название : DTS-HD Master AudioИдентификатор кодека : A_DTSПродолжительность : 1 ч. 31 м.Вид битрейта : ПеременныйБитрейт : 1 736 Кбит/секКаналы : 2 каналаChannel layout : L RЧастота : 48,0 КГцЧастота кадров : 93,750 кадра/сек (512 SPF)Битовая глубина : 16 битМетод сжатия : Без потерьРазмер потока : 1,11 Гбайт (7%)Заголовок : originalЯзык : EnglishDefault : НетForced : Нет
Аудио #2Идентификатор : 3Формат : AC-3Формат/Информация : Audio Coding 3Коммерческое название : Dolby DigitalИдентификатор кодека : A_AC3Продолжительность : 1 ч. 31 м.Вид битрейта : ПостоянныйБитрейт : 192 Кбит/секКаналы : 2 каналаChannel layout : L RЧастота : 48,0 КГцЧастота кадров : 31,250 кадров/сек (1536 SPF)Метод сжатия : С потерямиРазмер потока : 126 Мбайт (1%)Заголовок : DVOЯзык : RussianService kind : Complete MainDefault : ДаForced : Нет
Аудио #3Идентификатор : 4Формат : AC-3Формат/Информация : Audio Coding 3Коммерческое название : Dolby DigitalИдентификатор кодека : A_AC3Продолжительность : 1 ч. 31 м.Вид битрейта : ПостоянныйБитрейт : 192 Кбит/секКаналы : 2 каналаChannel layout : L RЧастота : 48,0 КГцЧастота кадров : 31,250 кадров/сек (1536 SPF)Метод сжатия : С потерямиРазмер потока : 126 Мбайт (1%)Заголовок : AVOЯзык : RussianService kind : Complete MainDefault : НетForced : Нет
Текст #1Идентификатор : 5Формат : UTF-8Идентификатор кодека : S_TEXT/UTF8Идентификатор кодека/Информация : UTF-8 Plain TextПродолжительность : 1 ч. 30 м.Битрейт : 71 бит/секЧастота кадров : 0,241 кадр/секCount of elements : 1304Размер потока : 47,5 Кбайт (0%)Заголовок : fullЯзык : EnglishDefault : НетForced : Нет
Текст #2Идентификатор : 6Формат : UTF-8Идентификатор кодека : S_TEXT/UTF8Идентификатор кодека/Информация : UTF-8 Plain TextПродолжительность : 1 ч. 31 м.Битрейт : 76 бит/секЧастота кадров : 0,262 кадр/секCount of elements : 1433Размер потока : 50,8 Кбайт (0%)Заголовок : SDHЯзык : EnglishDefault : НетForced : Нет
Меню00:00:00.000 : en:Chapter 0100:10:00.600 : en:Chapter 0200:20:01.200 : en:Chapter 0300:30:01.800 : en:Chapter 0400:40:02.400 : en:Chapter 0500:50:03.000 : en:Chapter 0601:00:03.600 : en:Chapter 0701:10:04.200 : en:Chapter 0801:20:04.799 : en:Chapter 0901:27:37.251 : en:Chapter 1001:31:31.027 : en:Chapter 11

Скриншоты

[Profile]  [PM] 
Display posts:    
Reply to topic

Current time is: 25-Jul 04:56

All times are UTC + 2



You cannot post new topics in this forum
You cannot reply to topics in this forum
You cannot edit your posts in this forum
You cannot delete your posts in this forum
You cannot vote in polls in this forum
You cannot attach files in this forum
You cannot download files in this forum