Джон Уик / John Wick (Чад Стахелски / Chad Stahelski, Дэвид Литч / David Leitch) [2014, США, Китай, боевик, триллер, криминал, HDRip-AVC] AVO (Дмитрий «Гоблин» Пучков) + Original (Eng) + Sub (Rus, Eng)

Reply to topic
 
Author
Message

Satyr ®

Gender: Unknown

Longevity: 15 years

Posts: 22031

Reputation: 56 [+] [-]

Satyr · Post 25-Jun-2023 15:25

[Quote] 

Джон Уик / John Wick
Год выпуска: 2014
Страна: США, Китай
Жанр: боевик, триллер, криминал
Продолжительность: 01:41:13
Перевод: Авторский (одноголосый закадровый), Дмитрий «Гоблин» Пучков | НЕНОРМАТИВНАЯ ЛЕКСИКА
Оригинальная аудиодорожка: английская
Субтитры: русские (полные), английские (полные)
Навигация по главам: есть
Режиссер: Чад Стахелски / Chad Stahelski, Дэвид Литч / David Leitch
В ролях: Киану Ривз /Keanu Reeves/, Микаэл Нюквист /Michael Nyqvist/, Алфи Аллен /Alfie Allen/, Уиллем Дефо /Willem Dafoe/, Дин Уинтерс /Dean Winters/, Эдрианн Палики /Adrianne Palicki/
Описание: Джон Уик - на первый взгляд, самый обычный среднестатистический американец, который ведет спокойную мирную жизнь. Однако мало кто знает, что он был наёмным убийцей, причём одним из лучших профессионалов в своём деле.
После того как сынок главы бандитской группы со своими приятелями угоняет его любимый «Мустанг» 1969 года выпуска, при этом убив его собаку Дейзи, которая была подарком недавно почившей супруги, Джон вынужден вернуться к своему прошлому. Теперь Уик начинает охоту за теми, кто имел неосторожность перейти ему дорогу, и он готов на всё, чтобы отомстить.
Исходник видео: John.Wick.2014.1080p.BluRay.DD5.1.x264-NTb
Качество видео: HDRip
Формат: MKV
Видео кодек: H.264
Аудио кодек: AC3
Видео: 1152x480, 23,976 fps, 2431 kbps
Аудио: AC3, stereo, 192 kbps, 48 kHz (Дмитрий «Гоблин» Пучков)
Аудио: AC3, DD 5.1, 448 kbps, 48 kHz (Оригинальная англоязычная озвучка)
Субтитры: русские (полные) [Алексей «Doctor Joker» Матвеев] | (форсированные), английские (полные)
Скачать: SAMPLE 43.18MB
Доп. информация: В видеоряде присутствует английский хардсаб (стилизованный) на некоторые русские слова. Гоблин отсюда (спасибо TBiL). Звук перетянут с 25,000 в 23,976 fps. Форсированные субтитры на "русскую речь". Рекламы нет.

MediaInfo

Формат : Matroska
Версия формата : Version 4
Размер файла : 2,17 Гбайт
Продолжительность : 1 ч. 41 м.
Общий поток : 3 071 Кбит/сек
Дата кодирования : UTC 2023-06-25 01:24:29
Программа кодирования : mkvmerge v8.3.0 ('Over the Horizon') 64bit
Библиотека кодирования : libebml v1.3.1 + libmatroska v1.4.2
Видео
Идентификатор : 1
Формат : AVC
Формат/Информация : Advanced Video Codec
Профиль формата : High@L4.1
Настройки формата : CABAC / 10 Ref Frames
Параметр CABAC формата : Да
Параметр RefFrames формата : 10 кадров
Идентификатор кодека : V_MPEG4/ISO/AVC
Продолжительность : 1 ч. 41 м.
Битрейт : 2 431 Кбит/сек
Ширина : 1 152 пикселя
Высота : 480 пикселей
Соотношение сторон : 2,40:1
Режим частоты кадров : Постоянный
Частота кадров : 23,976 (24000/1001) кадра/сек
Цветовое пространство : YUV
Субдискретизация насыщенности : 4:2:0
Битовая глубина : 8 бит
Тип развёртки : Прогрессивная
Бит/(Пиксели*Кадры) : 0.183
Размер потока : 1,72 Гбайт (79%)
Библиотека кодирования : x264 core 152 r2851 ba24899
Настройки программы : cabac=1 / ref=10 / deblock=1:-2:-1 / analyse=0x3:0x133 / me=umh / subme=10 / psy=1 / psy_rd=0.95:0.05 / mixed_ref=1 / me_range=32 / chroma_me=1 / trellis=2 / 8x8dct=1 / cqm=0 / deadzone=21,11 / fast_pskip=0 / chroma_qp_offset=-3 / threads=3 / lookahead_threads=1 / sliced_threads=0 / nr=0 / decimate=1 / interlaced=0 / bluray_compat=0 / constrained_intra=0 / bframes=9 / b_pyramid=2 / b_adapt=2 / b_bias=0 / direct=3 / weightb=1 / open_gop=0 / weightp=2 / keyint=240 / keyint_min=23 / scenecut=40 / intra_refresh=0 / rc_lookahead=80 / rc=2pass / mbtree=1 / bitrate=2431 / ratetol=1.0 / qcomp=0.60 / qpmin=10 / qpmax=51 / qpstep=4 / cplxblur=20.0 / qblur=0.5 / ip_ratio=1.40 / aq=1:1.00
Язык : English
Default : Да
Forced : Нет
Аудио #1
Идентификатор : 2
Формат : AC-3
Формат/Информация : Audio Coding 3
Коммерческое название : Dolby Digital
Идентификатор кодека : A_AC3
Продолжительность : 1 ч. 41 м.
Вид битрейта : Постоянный
Битрейт : 192 Кбит/сек
Каналы : 2 канала
Channel layout : L R
Частота : 48,0 КГц
Частота кадров : 31,250 кадров/сек (1536 SPF)
Метод сжатия : С потерями
Размер потока : 139 Мбайт (6%)
Заголовок : Дмитрий «Goblin» Пучков
Язык : Russian
Service kind : Complete Main
Default : Да
Forced : Нет
Аудио #2
Идентификатор : 3
Формат : AC-3
Формат/Информация : Audio Coding 3
Коммерческое название : Dolby Digital
Идентификатор кодека : A_AC3
Продолжительность : 1 ч. 41 м.
Вид битрейта : Постоянный
Битрейт : 448 Кбит/сек
Каналы : 6 каналов
Channel layout : L R C LFE Ls Rs
Частота : 48,0 КГц
Частота кадров : 31,250 кадров/сек (1536 SPF)
Метод сжатия : С потерями
Размер потока : 324 Мбайт (15%)
Заголовок : Оригинальная дорожка
Язык : English
Service kind : Complete Main
Default : Нет
Forced : Нет
Текст #1
Идентификатор : 4
Формат : UTF-8
Идентификатор кодека : S_TEXT/UTF8
Идентификатор кодека/Информация : UTF-8 Plain Text
Продолжительность : 1 ч. 16 м.
Битрейт : 4 бит/сек
Частота кадров : 0,017 кадр/сек
Count of elements : 76
Размер потока : 2,47 Кбайт (0%)
Заголовок : forced
Язык : Russian
Default : Да
Forced : Нет
Текст #2
Идентификатор : 5
Формат : UTF-8
Идентификатор кодека : S_TEXT/UTF8
Идентификатор кодека/Информация : UTF-8 Plain Text
Продолжительность : 1 ч. 34 м.
Битрейт : 39 бит/сек
Частота кадров : 0,109 кадр/сек
Count of elements : 618
Размер потока : 27,1 Кбайт (0%)
Заголовок : Алексей «Doctor Joker» Матвеев
Язык : Russian
Default : Нет
Forced : Нет
Текст #3
Идентификатор : 6
Формат : UTF-8
Идентификатор кодека : S_TEXT/UTF8
Идентификатор кодека/Информация : UTF-8 Plain Text
Продолжительность : 1 ч. 33 м.
Битрейт : 21 бит/сек
Частота кадров : 0,099 кадр/сек
Count of elements : 554
Размер потока : 14,9 Кбайт (0%)
Язык : English
Default : Нет
Forced : Нет
Меню
00:00:00.000 : en:00:00:00.000
00:04:57.504 : en:00:04:57.504
00:12:21.865 : en:00:12:21.865
00:17:07.733 : en:00:17:07.733
00:26:25.165 : en:00:26:25.165
00:32:40.249 : en:00:32:40.249
00:36:24.597 : en:00:36:24.597
00:42:16.032 : en:00:42:16.032
00:45:33.271 : en:00:45:33.271
00:55:02.507 : en:00:55:02.507
00:59:27.563 : en:00:59:27.563
01:06:13.427 : en:01:06:13.427
01:14:15.908 : en:01:14:15.908
01:19:13.038 : en:01:19:13.038
01:27:29.786 : en:01:27:29.786
01:32:24.788 : en:01:32:24.788

Скриншоты

[Profile]  [PM] 
Display posts:    
Reply to topic

Current time is: 20-Jul 02:19

All times are UTC + 2



You cannot post new topics in this forum
You cannot reply to topics in this forum
You cannot edit your posts in this forum
You cannot delete your posts in this forum
You cannot vote in polls in this forum
You cannot attach files in this forum
You cannot download files in this forum