Хроники Нарнии: Лев, колдунья и волшебный шкаф / The Chronicles of Narnia: The Lion, the Witch and the Wardrobe (Эндрю Адамсон / Andrew Adamson) [2005, Великобритания, США, фэнтези, приключения, семейный, HDRip] AVO (Гаврилов)

Reply to topic
 
Author
Message

Wolf ®

Gender: Unknown

Longevity: 14 years

Posts: 3485

Reputation: 0 [+] [-]

Wolf · Post 25-Jun-2023 15:25

[Quote] 

Хроники Нарнии: Лев, колдунья и волшебный шкаф / The Chronicles of Narnia: The Lion, the Witch and the Wardrobe
Страна: Великобритания, США
Жанр: фэнтези, приключения, семейный
Год выпуска: 2005
Продолжительность: 02:22:51
Перевод: Авторский (одноголосый закадровый) Андрей Гаврилов
Субтитры: нет
Оригинальная аудиодорожка: нет
Режиссер: Эндрю Адамсон / Andrew Adamson
В ролях: Джорджи Хенли, Скандар Кейнс, Уильям Моусли, Анна Попплуэлл, Тильда Суинтон, Джеймс МакЭвой, Джим Бродбент, Киран Шах, Джеймс Космо, Джуди МакИнтош
Описание: Четверых детей родители отправляют из Лондона в деревню, к старому профессору - другу семьи. В его доме дети обнаруживают таинственный платяной шкаф, посредством которого они попадают в сказочную страну Нарнию, где обитают фантастические люди, животные и существа. Оказывается, что эта мирная страна находится под властью злой Колдуньи, из-за которой там - вечная зима. Дети должны помочь царю Аслану (Великому Льву, который много столетий назад основал Нарнию) победить Колдунью, разрушить заклинания и освободить жителей Нарнии.
IMDbКиноПоиск
Качество видео: HDRip, исходник - BDRip 720p
Формат видео: AVI
Видео: XviD, 720x304, 23.976 fps, 1730 kbps
Аудио: Русский, AC-3, 6 ch, 48 kHz, 448 kbps
Сэмпл

MediaInfo

GeneralFormat                                   : AVIFormat/Info                              : Audio Video InterleaveFormat settings                          : BitmapInfoHeader / WaveFormatExFile size                                : 2.18 GiBDuration                                 : 2 h 22 minOverall bit rate                         : 2 189 kb/sFrame rate                               : 23.976 FPSMovie name                               : The Chronicles of Narnia: The Lion, the Witch and the Wardrobe (2005)Writing application                      : Lavf59.27.100
VideoID : 0Format : MPEG-4 VisualFormat profile : Advanced Simple@L5Format settings : BVOP1Format settings, BVOP : 1Format settings, QPel : NoFormat settings, GMC : No warppointsFormat settings, Matrix : Default (H.263)Codec ID : XVIDCodec ID/Hint : XviDDuration : 2 h 22 minBit rate : 1 730 kb/sWidth : 720 pixelsHeight : 304 pixelsDisplay aspect ratio : 2.35:1Frame rate : 23.976 (24000/1001) FPSColor space : YUVChroma subsampling : 4:2:0Bit depth : 8 bitsScan type : ProgressiveCompression mode : LossyBits/(Pixel*Frame) : 0.330Stream size : 1.73 GiB (79%)Writing library : XviD 69
AudioID : 1Format : AC-3Format/Info : Audio Coding 3Commercial name : Dolby DigitalCodec ID : 2000Duration : 2 h 22 minBit rate mode : ConstantBit rate : 448 kb/sChannel(s) : 6 channelsChannel layout : L R C LFE Ls RsSampling rate : 48.0 kHzFrame rate : 31.250 FPS (1536 SPF)Bit depth : 16 bitsCompression mode : LossyStream size : 458 MiB (20%)Alignment : Aligned on interleavesInterleave, duration : 32 ms (0.77 video frame)Title : AVO GavrilovService kind : Complete Main

Скриншот c названием фильма

Скриншоты

[Profile]  [PM] 
Display posts:    
Reply to topic

Current time is: 25-Jul 05:24

All times are UTC + 2



You cannot post new topics in this forum
You cannot reply to topics in this forum
You cannot edit your posts in this forum
You cannot delete your posts in this forum
You cannot vote in polls in this forum
You cannot attach files in this forum
You cannot download files in this forum