Сорняки / Сорная трава / Mauvaises herbes (Керон / Kheiron) [2018, Франция, Бельгия, комедия, драма, BDRip] AVO (Роман Янкелевич)

Reply to topic
 
Author
Message

Satyr ®

Gender: Unknown

Longevity: 15 years

Posts: 22031

Reputation: 56 [+] [-]

Satyr · Post 25-Jun-2023 15:25

[Quote] 

Сорняки / Сорная трава / Mauvaises herbes
Страна: Франция, Бельгия
Жанр: комедия, драма
Год выпуска: 2018
Продолжительность: 01:44:38
Перевод: Авторский (одноголосый закадровый) Роман Янкелевич
Субтитры: нет
Режиссер: Керон / Kheiron
В ролях: Керон, Катрин Денёв, Андре Дюссолье, Луизон Бливе, Адиль Дехби, Аку Беноман, Юссуф Ваг, Уассима Цруки
Описание: Моник и её приёмный сын Уаэль зарабатывают на жизнь тем, что проворачивают аферы с ограблением с нерасторопными покупателями на парковке. Но однажды Моник натыкается на своего старого знакомого Виктора, который хочет заявить на Уаэля в полицию. За молчание преподаватель Виктор просит Уаэля помочь ему с его трудными учениками ...

Сэмпл: https://disk.yandex.ru/i/Iw4b1U2cECiFUg
Качество видео: BDRip (Исходник BDRemux 1080p)
Формат видео: AVI
Видео: XviD 73, 720x304, (2,35:1), 23,976 fps, 1532 Кбит/с, 8 бит, 0.29 bit/pixel
Аудио: Русский (АС3, 6 ch (Front: L C R, Side: L R, LFE), 48,0 KHz, 448 Kbps

MediaInfo

ОбщееПолное имя                               : F:\На трекер\Сорняки (комедия, драма 2018 год).aviФормат                                   : AVIФормат/Информация                        : Audio Video InterleaveРазмер файла                             : 1,45 ГбайтПродолжительность                        : 1 ч. 44 м.Общий поток                              : 1989 Кбит/секПрограмма кодирования                    : VirtualDubMod 1.5.10.2 (build 2540/release)Библиотека кодирования                   : VirtualDubMod build 2540/release
ВидеоИдентификатор : 0Формат : MPEG-4 VisualПрофиль формата : Advanced Simple@L5Параметр BVOP формата : 2Параметр QPel формата : НетПараметр GMC формата : Без точки переходаПараметр матрицы формата : ВыборочнаяИдентификатор кодека : XVIDИдентификатор кодека/Подсказка : XviDПродолжительность : 1 ч. 44 м.Битрейт : 1532 Кбит/секШирина : 720 пикселейВысота : 304 пикселяСоотношение сторон : 2,35:1Частота кадров : 23,976 (23976/1000) кадра/секЦветовое пространство : YUVСубдискретизация насыщенности : 4:2:0Битовая глубина : 8 битТип развёртки : ПрогрессивнаяМетод сжатия : С потерямиБит/(Пиксели*Кадры) : 0.292Размер потока : 1,12 Гбайт (77%)Библиотека кодирования : XviD 73
АудиоИдентификатор : 1Формат : AC-3Формат/Информация : Audio Coding 3Расширение режима : CM (complete main)Параметр Endianness формата : BigИдентификатор кодека : 2000Продолжительность : 1 ч. 44 м.Вид битрейта : ПостоянныйБитрейт : 448 Кбит/секКаналы : 6 каналовРасположение каналов : Front: L C R, Side: L R, LFEЧастота : 48,0 КГцЧастота кадров : 31,250 кадров/сек (1536 spf)Метод сжатия : С потерямиРазмер потока : 335 Мбайт (23%)Выравнивание : Разделение по промежуткамПродолжительность промежутка : 42 мс. (1,00 видеокадр)Время предзагрузки промежутка : 500 мс.

Скриншот c названием фильма

Скриншоты

[Profile]  [PM] 
Display posts:    
Reply to topic

Current time is: 20-Jul 02:15

All times are UTC + 2



You cannot post new topics in this forum
You cannot reply to topics in this forum
You cannot edit your posts in this forum
You cannot delete your posts in this forum
You cannot vote in polls in this forum
You cannot attach files in this forum
You cannot download files in this forum