Помогите, я уменьшил своих родителей! / Hilfe, ich hab meine Eltern geschrumpft (Тим Трагезер / Tim Trageser) [2018, Германия, комедия, приключения, семейный, WEB-DLRip] Dub (Мосфильм-Мастер)

Reply to topic
 
Author
Message

Satyr ®

Gender: Unknown

Longevity: 15 years

Posts: 22031

Reputation: 56 [+] [-]

Satyr · Post 25-Jun-2023 15:25

[Quote] 

Помогите, я уменьшил своих родителей! / Hilfe, ich hab meine Eltern geschrumpft
Страна: Германия
Жанр: комедия, приключения, семейный
Год выпуска: 2018
Продолжительность: 01:38:27
Перевод: Профессиональный (дублированный) Мосфильм-Мастер
Субтитры: нет
Оригинальная аудиодорожка: нет
Режиссер: Тим Трагезер / Tim Trageser
В ролях: Оскар Кеймер, Лина Хускер, Аня Клинг, Аксель Штайн, Джулия Хартманн, Йоханес Цайлер, Михаэль Островский, Андреа Завацки, Отто Валькес, Георг Зольцер
Описание: Новый год, новые приключения. После короткой встречи с ненавистной директрисой Хульдой Стехбарт родители Феликса уменьшаются до размера карандаша. Теперь Феликс за них в ответе — ведь мама с папой легко помещаются ему в ладонь. Со своими друзьями он разрабатывает план, как вернуть родителям прежний размер, а заодно освободить настоящего директора фрау Шмитт-Гёссенвайн и помешать Хульде Стехбарт захватить в школе власть.
Кинопоиск - IMDb
Sample
Качество видео: WEB-DLRip
Формат видео: AVI
Видео: 720x304 (2.37:1), 24.000 fps, XviD build 73 ~1732 kbps avg, 0.33 bit/pixel
Аудио: Russian (AC3, 6 ch, 384 kbps, 48.0 KHz) - Dub

MediaInfo

General
Complete name : W:\Hilfe, ich hab meine Eltern geschrumpft 2018 WEB-DLRip.avi
Format : AVI
Format/Info : Audio Video Interleave
File size : 1.46 GiB
Duration : 1 h 38 min
Overall bit rate : 2 126 kb/s
Writing application : VirtualDubMod 1.5.10.3 | www.virtualdub-fr.org || (build 2550/release)
Writing library : VirtualDubMod build 2550/release
Video
ID : 0
Format : MPEG-4 Visual
Format profile : Advanced Simple@L5
Format settings : BVOP1 / Custom Matrix
Format settings, BVOP : 1
Format settings, QPel : No
Format settings, GMC : No warppoints
Format settings, Matrix : Custom
Codec ID : XVID
Codec ID/Hint : XviD
Duration : 1 h 38 min
Bit rate : 1 732 kb/s
Width : 720 pixels
Height : 304 pixels
Display aspect ratio : 2.35:1
Frame rate : 24.000 FPS
Color space : YUV
Chroma subsampling : 4:2:0
Bit depth : 8 bits
Scan type : Progressive
Compression mode : Lossy
Bits/(Pixel*Frame) : 0.330
Stream size : 1.19 GiB (81%)
Writing library : XviD 73
Audio
ID : 1
Format : AC-3
Format/Info : Audio Coding 3
Codec ID : 2000
Duration : 1 h 38 min
Bit rate mode : Constant
Bit rate : 384 kb/s
Channel(s) : 6 channels
Channel positions : Front: L C R, Side: L R, LFE
Sampling rate : 48.0 kHz
Frame rate : 31.250 FPS (1536 SPF)
Bit depth : 16 bits
Compression mode : Lossy
Stream size : 270 MiB (18%)
Alignment : Split accross interleaves
Interleave, duration : 42 ms (1.00 video frame)
Interleave, preload duratio : 500 ms
Service kind : Complete Main

Скриншоты


[Profile]  [PM] 
Display posts:    
Reply to topic

Current time is: 20-Jul 02:14

All times are UTC + 2



You cannot post new topics in this forum
You cannot reply to topics in this forum
You cannot edit your posts in this forum
You cannot delete your posts in this forum
You cannot vote in polls in this forum
You cannot attach files in this forum
You cannot download files in this forum