Чай с Муссолини / Tea with Mussolini (Франко Дзеффирелли / Franco Zeffirelli) [1999, Италия, Великобритания, драма, комедия, военный, BDRip-AVC] AVO (Сергей Визгунов)

Reply to topic
 
Author
Message

Satyr ®

Gender: Unknown

Longevity: 15 years

Posts: 22031

Reputation: 56 [+] [-]

Satyr · Post 25-Jun-2023 15:25

[Quote] 

Чай с Муссолини / Tea with Mussolini
Страна: Италия, Великобритания
Жанр: драма, комедия, военный
Год выпуска: 1999
Продолжительность: 01:57:37
Перевод: Авторский (одноголосый закадровый) Сергей Визгунов
Субтитры: нет
Режиссер: Франко Дзеффирелли / Franco Zeffirelli
В ролях: Шер, Джуди Денч, Джоан Плаурайт, Мэгги Смит, Лили Томлин, Бэйрд Уоллес, Чарли Лукас, Массимо Гини, Паоло Сеганти, Клаудио Спадаро
Описание: Диктатор Муссолини и его соратники прибирают власть в Италии к своим рукам. Но в залитой солнцем сонной Флоренции все идет по - старому. Здесь ведет сытое, размеренное и безмятежное существование пестрая компания пожилых леди из Америки и Британии, прозванных местными остряками "Скорпионшами". Дамы проводят дни в светских беседах, неторопливых чаепитиях и обсуждениях достоинств своего неподражаемого кумира - Муссолини. Никто не подозревает, что очень скоро кумир сделает их жизнь в Италии невыносимой…
Доп. информация: Дорожку с переводом Визгунова синхронизировал ale_x2008
За дорожку благодарим - manhunt clon

Релиз
Сэмпл: https://www.sendspace.com/file/yg1su9
Качество видео: BDRip-AVC [Un.te.con.Mussolini.1999.MULTi.COMPLETE.BLURAY Remux - Monkeyy .mkv]
Формат видео: MKV
Видео: MPEG4 Video (H264) 944x512 23.976fps Bit rate 1 769 kb/s
Аудио: Dolby AC3 48000Hz 2 ch (mono) 192kbps

MediaInfo

Чай с Муссолини (Un tè con Mussolini) [by ale_x2008].mkvFormat                      : MatroskaFormat version              : Version 4File size                   : 1.76 GiBDuration                    : 1 h 57 minOverall bit rate            : 2 137 kb/sFrame rate                  : 23.976 FPSEncoded date                : 2023-06-25 06:40:14 UTCWriting application         : mkvmerge v71.0.0 ('Altitude') 64-bitWriting library             : libebml v1.4.4 + libmatroska v1.7.1
VideoID : 1Format : AVCFormat/Info : Advanced Video CodecFormat profile : High@L4.1Format settings : CABAC / 16 Ref FramesFormat settings, CABAC : YesFormat settings, Reference : 16 framesCodec ID : V_MPEG4/ISO/AVCDuration : 1 h 57 minBit rate : 1 769 kb/sWidth : 944 pixelsHeight : 512 pixelsDisplay aspect ratio : 1.85:1Frame rate mode : ConstantFrame rate : 23.976 (24000/1001) FPSColor space : YUVChroma subsampling : 4:2:0Bit depth : 8 bitsScan type : ProgressiveBits/(Pixel*Frame) : 0.153Stream size : 1.45 GiB (83%)Writing library : x264 core 148 r2638 7599210Encoding settings : cabac=1 / ref=16 / deblock=1:-3:-3 / analyse=0x3:0x133 / me=umh / subme=9 / psy=1 / psy_rd=1.00:0.00 / mixed_ref=1 / me_range=32 / chroma_me=1 / trellis=2 / 8x8dct=1 / cqm=0 / deadzone=21,11 / fast_pskip=1 / chroma_qp_offset=-2 / threads=16 / lookahead_threads=4 / sliced_threads=0 / nr=0 / decimate=1 / interlaced=0 / bluray_compat=0 / constrained_intra=0 / bframes=10 / b_pyramid=0 / b_adapt=2 / b_bias=0 / direct=3 / weightb=1 / open_gop=0 / weightp=2 / keyint=250 / keyint_min=23 / scenecut=40 / intra_refresh=0 / rc=crf / mbtree=0 / crf=20.0 / qcomp=0.60 / qpmin=0 / qpmax=69 / qpstep=4 / ip_ratio=1.40 / pb_ratio=1.30 / aq=1:1.00Default : YesForced : No
Audio #1ID : 2Format : AC-3Format/Info : Audio Coding 3Commercial name : Dolby DigitalCodec ID : A_AC3Duration : 1 h 57 minBit rate mode : ConstantBit rate : 192 kb/sChannel(s) : 2 channelsChannel layout : L RSampling rate : 48.0 kHzFrame rate : 31.250 FPS (1536 SPF)Compression mode : LossyStream size : 162 MiB (9%)Title : ВизгуновLanguage : RussianService kind : Complete MainDefault : YesForced : No

Скриншоты


[Profile]  [PM] 
Display posts:    
Reply to topic

Current time is: 20-Jul 02:14

All times are UTC + 2



You cannot post new topics in this forum
You cannot reply to topics in this forum
You cannot edit your posts in this forum
You cannot delete your posts in this forum
You cannot vote in polls in this forum
You cannot attach files in this forum
You cannot download files in this forum