Уже мертв / Уже мертвый / Deja Mort (Оливье Даан / Olivier Dahan) [1998, Франция, драма, криминал, DVDRip-AVC] AVO (Юрий Сербин) + Sub Eng + Original Fra

Reply to topic
 
Author
Message

Satyr ®

Gender: Unknown

Longevity: 15 years

Posts: 22031

Reputation: 56 [+] [-]

Satyr · Post 25-Jun-2023 15:25

[Quote] 

Уже мертв / Уже мертвый / Deja Mort
Страна: Франция
Жанр: драма, криминал
Год выпуска: 1998
Продолжительность: 01:42:46
Перевод: Авторский (одноголосый закадровый) Юрий Сербин
Субтитры: английские
Оригинальная аудиодорожка: французский
Режиссер: Оливье Даан / Olivier Dahan
В ролях: Бенуа Мажимель, Ромен Дюри, Зои Феликс, Клеман Сибони, Исаак Шарри, Карло Брандт, Ив Бенетон, Эшли Ваннингер
Описание: В 20 лет кажется, что все еще впереди. А вокруг столько соблазнов — безумная свобода, яркая сумасшедшая жизнь затягивают в омут с головой, и ты отрываешься на полную катушку. Секс, наркотики, острые ощущения и бешеный ритм дарят вечный кайф и незаметно поглощают тебя целиком. И вот однажды ты понимаешь, что ты уже давно мертв и нет пути назад.
Доп. информация: Дорожку с переводом синхронизировал ale_x2008
За дорожку благодарим - Fikaloid

Релиз
Сэмпл: https://www.sendspace.com/file/wpmxal
Качество видео: DVDRip-AVC
Формат видео: MKV
Видео: 718x432 (2.35:1) @ 1022x432, 25 fps, AVC, ~1 645 Kbps, 0.212 bits/pixel
Аудио: Dolby AC3 48000Hz 2 ch stereo 192kbps
Аудио 2: Dolby AC3 48000Hz 2 ch 192kbps
Формат субтитров: softsub (SRT)

MediaInfo

Уже мертв (Déjà mort) DVDRip-AVC Serbin stereo [by ale_x2008].mkvFormat                         : MatroskaFormat version                 : Version 4File size                      : 1.46 GiBDuration                       : 1 h 42 minOverall bit rate               : 2 030 kb/sFrame rate                     : 25.000 FPSEncoded date                   : 2023-06-24 19:11:48 UTCWriting application            : mkvmerge v71.0.0 ('Altitude') 64-bitWriting library                : libebml v1.4.4 + libmatroska v1.7.1
VideoID : 1Format : AVCFormat/Info : Advanced Video CodecFormat profile : High@L4.1Format settings : CABAC / 16 Ref FramesFormat settings, CABAC : YesFormat settings, Reference fra : 16 framesCodec ID : V_MPEG4/ISO/AVCDuration : 1 h 42 minBit rate : 1 645 kb/sWidth : 718 pixelsHeight : 432 pixelsDisplay aspect ratio : 2.35:1Frame rate mode : ConstantFrame rate : 25.000 FPSColor space : YUVChroma subsampling : 4:2:0Bit depth : 8 bitsScan type : ProgressiveBits/(Pixel*Frame) : 0.212Stream size : 1.18 GiB (81%)Title : Deja mortWriting library : x264 core 148 r2638 7599210Encoding settings : cabac=1 / ref=16 / deblock=1:-2:-1 / analyse=0x3:0x113 / me=umh / subme=11 / psy=1 / psy_rd=1.00:0.15 / mixed_ref=1 / me_range=32 / chroma_me=1 / trellis=2 / 8x8dct=1 / cqm=0 / deadzone=21,11 / fast_pskip=0 / chroma_qp_offset=-3 / threads=3 / lookahead_threads=1 / sliced_threads=0 / nr=0 / decimate=1 / interlaced=0 / bluray_compat=0 / constrained_intra=0 / bframes=12 / b_pyramid=2 / b_adapt=2 / b_bias=0 / direct=3 / weightb=1 / open_gop=0 / weightp=2 / keyint=250 / keyint_min=25 / scenecut=40 / intra_refresh=0 / rc=2pass / mbtree=0 / bitrate=1645 / ratetol=1.0 / qcomp=0.60 / qpmin=0 / qpmax=69 / qpstep=4 / cplxblur=20.0 / qblur=0.5 / ip_ratio=1.40 / pb_ratio=1.30 / aq=1:1.00Language : FrenchDefault : YesForced : No
Audio #1ID : 2Format : AC-3Format/Info : Audio Coding 3Commercial name : Dolby DigitalCodec ID : A_AC3Duration : 1 h 42 minBit rate mode : ConstantBit rate : 192 kb/sChannel(s) : 2 channelsChannel layout : L RSampling rate : 48.0 kHzFrame rate : 31.250 FPS (1536 SPF)Compression mode : LossyStream size : 141 MiB (9%)Title : СербинLanguage : RussianService kind : Complete MainDefault : YesForced : No
Audio #2ID : 3Format : AC-3Format/Info : Audio Coding 3Commercial name : Dolby DigitalFormat settings : Dolby SurroundCodec ID : A_AC3Duration : 1 h 42 minBit rate mode : ConstantBit rate : 192 kb/sChannel(s) : 2 channelsChannel layout : L RSampling rate : 48.0 kHzFrame rate : 31.250 FPS (1536 SPF)Compression mode : LossyStream size : 141 MiB (9%)Language : FrenchService kind : Complete MainDefault : NoForced : No
TextID : 4Format : UTF-8Codec ID : S_TEXT/UTF8Codec ID/Info : UTF-8 Plain TextDuration : 1 h 42 minBit rate : 40 b/sFrame rate : 0.188 FPSCount of elements : 1154Stream size : 30.5 KiB (0%)Title : FullLanguage : EnglishDefault : NoForced : No

Скриншоты

[Profile]  [PM] 
Display posts:    
Reply to topic

Current time is: 20-Jul 02:12

All times are UTC + 2



You cannot post new topics in this forum
You cannot reply to topics in this forum
You cannot edit your posts in this forum
You cannot delete your posts in this forum
You cannot vote in polls in this forum
You cannot attach files in this forum
You cannot download files in this forum