Звездные войны: Эпизод 5 - Империя наносит ответный удар / Star Wars: Episode V - The Empire Strikes Back (Ирвин Кершнер / Irvin Kershner) [1980, США, фантастика, боевик, фэнтези, приключения, HDRip] AVO (Лёша-прапорщик) + Original Eng

Reply to topic
 
Author
Message

Satyr ®

Online

Gender: Unknown

Longevity: 15 years

Posts: 22035

Reputation: 56 [+] [-]

Satyr · Post 25-Jun-2023 15:25

[Quote] 

Звездные войны: Эпизод 5 - Империя наносит ответный удар / Star Wars: Episode V - The Empire Strikes Back
Страна: США
Жанр: фантастика, боевик, фэнтези, приключения
Год выпуска: 1980
Продолжительность: 02:07:21
Перевод: Авторский (одноголосый закадровый) Лёша-прапорщик
Субтитры: нет
Оригинальная аудиодорожка: английский
Режиссер: Ирвин Кершнер / Irvin Kershner
В ролях: Марк Хэмилл, Харрисон Форд, Кэрри Фишер, Билли Ди Уильямс, Энтони Дэниелс, Дэвид Праус, Питер Мейхью, Кенни Бейкер, Фрэнк Оз, Алек Гиннесс
Описание: Старые приятели - Люк Скайуокер, Хан Соло и принцесса Лея в новом месте и снова среди повстанцев,
борющихся против владычества империи.
Во второй части "Звездных войн" между Ханом Соло и Леей завязывается любовный роман, а Люк Скайуокер
проходит курс обучения у таинственного Йоды на далекой планете. (Описание с коробки VHS)
Доп. информация:
Странная у Лёшы была новая версия, со старым императором, пришлось немного пожертвовать "губошлёпами", но сохранить текст.
Есть вставка Живова 0:53:20-0:53:39.
Сэмпл: http://sendfile.su/1670460
Качество видео: HDRip
Формат видео: AVI
Видео: 720x304 (2.37:1), 23.976 fps, DivX Codec 6.8.5/6.9.1 ~2063 kbps avg, 0.39 bit/pixel
Аудио: 48 kHz, AC3 Dolby Digital, 2/0 (L,R) ch, ~192 kbps
Аудио 2: 48 kHz, AC3 Dolby Digital, 2/0 (L,R) ch, ~192 kbps

MediaInfo

Формат                                   : AVIФормат/Информация                        : Audio Video InterleaveПрофиль формата                          : OpenDMLРазмер файла                             : 2,18 ГбайтПродолжительность                        : 2 ч. 7 м.Общий поток                              : 2455 Кбит/сек
ВидеоИдентификатор : 0Формат : MPEG-4 VisualНастройки формата : BVOPПараметр BVOP формата : ДаПараметр QPel формата : НетПараметр GMC формата : Без точки переходаПараметр матрицы формата : Default (H.263)Идентификатор кодека : DX50Идентификатор кодека/Подсказка : DivX 5Продолжительность : 2 ч. 7 м.Битрейт : 2053 Кбит/секНоминальный битрейт : 4854 Кбит/секШирина : 720 пикселейВысота : 304 пикселяСоотношение сторон : 2,35:1Частота кадров : 23,976 (24000/1001) кадра/секЦветовое пространство : YUVСубдискретизация насыщенности : 4:2:0Битовая глубина : 8 битТип развёртки : ПрогрессивнаяМетод сжатия : С потерямиБит/(Пиксели*Кадры) : 0.391Размер потока : 1,83 Гбайт (84%)Библиотека кодирования : DivX 6.8.5 (UTC 2009-08-20)
Аудио #1Идентификатор : 1Формат : AC-3Формат/Информация : Audio Coding 3Идентификатор кодека : 2000Продолжительность : 2 ч. 7 м.Вид битрейта : ПостоянныйБитрейт : 192 Кбит/секКаналы : 2 каналаРасположение каналов : Front: L RЧастота : 48,0 КГцЧастота кадров : 31,250 кадров/сек (1536 SPF)Битовая глубина : 16 битМетод сжатия : С потерямиРазмер потока : 175 Мбайт (8%)Выравнивание : Разделение по промежуткамПродолжительность промежутка : 42 мс. (1,00 видеокадр)Время предзагрузки промежутка : 500 мс.ServiceKind/String : Complete Main
Аудио #2Идентификатор : 2Формат : AC-3Формат/Информация : Audio Coding 3Идентификатор кодека : 2000Продолжительность : 2 ч. 7 м.Вид битрейта : ПостоянныйБитрейт : 192 Кбит/секКаналы : 2 каналаРасположение каналов : Front: L RЧастота : 48,0 КГцЧастота кадров : 31,250 кадров/сек (1536 SPF)Битовая глубина : 16 битМетод сжатия : С потерямиРазмер потока : 175 Мбайт (8%)Выравнивание : Соединение по промежуткамПродолжительность промежутка : 42 мс. (1,00 видеокадр)Время предзагрузки промежутка : 512 мс.ServiceKind/String : Complete Main

Скриншоты

[Profile]  [PM] 
Display posts:    
Reply to topic

Current time is: 21-Jul 21:40

All times are UTC + 2



You cannot post new topics in this forum
You cannot reply to topics in this forum
You cannot edit your posts in this forum
You cannot delete your posts in this forum
You cannot vote in polls in this forum
You cannot attach files in this forum
You cannot download files in this forum