(Rock) Кино - Лучшие песни 88-90 - 1999, APE (image+.cue), lossless

Reply to topic
 
Author
Message

23andrey231 ®

Gender: Unknown

Longevity: 11 years

Posts: 142

Reputation: 0 [+] [-]

23andrey231 · Post 14-Sep-2009 22:45

[Quote] 

Кино - Лучшие песни 88-90- --Жанр: Рок
Год выпуска диска: 1999
Производитель диска: Россия МОРОЗ рекордз
Аудио кодек: APE
Тип рипа: image+.cue
Битрейт аудио: lossless
Продолжительность:00:64:56
Трэклист:
-
1. Пачка сигарет
2. Хочу перемен
3. Кончится лето
4. Троллейбус
5. Когда твоя девушка больна
6. Песня без слов
7. Печаль
8. Следи за собой
9. Последний герой
10. Кукушка
11. Звезда по имени Солнце
12. Стук
13. Спокойная ночь
14. Место для шага вперёд
-

Отчёт EAC

Exact Audio Copy V0.99 prebeta 4 from 23. January 2008
Отчёт EAC об извлечении, выполненном 25. октября 2008, 11:29
Кино / Лучшие песни 88-90
Дисковод: TSSTcorpCD/DVDW SH-W162L Adapter: 0 ID: 0
Режим чтения : Достоверность
Использование точного потока : Да
Отключение кэша аудио : Да
Использование указателей C2 : Нет
Коррекция смещения при чтении : 6
Способность читать области Lead-in и Lead-out : Нет
Заполнение пропущенных сэмплов тишиной : Да
Удаление блоков с тишиной в начале и конце : Нет
При вычислениях CRC использовались нулевые сэмплы : Да
Интерфейс : Встроенный Win32-интерфейс для Win NT/2000
Выходной формат : Внутренние WAV-операции
Формат сэмплов : 44.100 Гц; 16 бит; стерео
TOC извлечённого CD
Трек | Старт | Длительность | Начальный сектор | Конечный сектор
---------------------------------------------------------------------
1 | 0:00.00 | 4:25.35 | 0 | 19909
2 | 4:25.35 | 4:50.38 | 19910 | 41697
3 | 9:15.73 | 5:51.04 | 41698 | 68026
4 | 15:07.02 | 2:51.48 | 68027 | 80899
5 | 17:58.50 | 4:17.12 | 80900 | 100186
6 | 22:15.62 | 5:02.05 | 100187 | 122841
7 | 27:17.67 | 5:05.30 | 122842 | 145746
8 | 32:23.22 | 4:55.38 | 145747 | 167909
9 | 37:18.60 | 3:02.44 | 167910 | 181603
10 | 40:21.29 | 6:36.25 | 181604 | 211328
11 | 46:57.54 | 3:44.11 | 211329 | 228139
12 | 50:41.65 | 3:46.52 | 228140 | 245141
13 | 54:28.42 | 6:22.06 | 245142 | 273797
14 | 60:50.48 | 3:37.12 | 273798 | 290084
Характеристики диапазона извлечения и сообщения об ошибках
Выбранный диапазон
Имя файла C:\Users\Артур\Desktop\Кино - Лучшие песни 88-90.wav
Пиковый уровень 99.9 %
Качество диапазона 100.0 %
CRC копии 9D9B5955
Копирование... OK
Ошибок не произошло
AccurateRip: сводка
Трек 1 нет в базе данных
Трек 2 нет в базе данных
Трек 3 нет в базе данных
Трек 4 нет в базе данных
Трек 5 нет в базе данных
Трек 6 нет в базе данных
Трек 7 нет в базе данных
Трек 8 нет в базе данных
Трек 9 нет в базе данных
Трек 10 нет в базе данных
Трек 11 нет в базе данных
Трек 12 нет в базе данных
Трек 13 нет в базе данных
Трек 14 нет в базе данных
Ни одного трека нет в базе AccurateRip
Конец отчёта
[Profile]  [PM] 

mario-OS

Gender: Male

Longevity: 11 years

Posts: 575

Reputation: 31 [+] [-]

Location: ...из страны, где шлюха стоит всего лишь доллар, солнце всегда и везде (с)

mario-OS · Post 18-Sep-2009 19:23 (after 3 days)

[Quote] 

Спасибо!!Так держать!!
[Profile]  [PM] 
Display posts:    
Reply to topic

Current time is: 04-Mar 21:05

All times are UTC + 2



You cannot post new topics in this forum
You cannot reply to topics in this forum
You cannot edit your posts in this forum
You cannot delete your posts in this forum
You cannot vote in polls in this forum
You cannot attach files in this forum
You cannot download files in this forum