Маша и Медведь (59 серия) (Георгий Орлов) [2016 г., Анимация, семейный, мультфильм, WEB-DLRip 1080p]

Reply to topic
 
Author
Message

groozin ®

Gender: Male

Longevity: 3 years 1 month

Posts: 46

Reputation: 0 [+] [-]

Location: ЛНР

groozin · Post 18-Oct-2016 10:13

[Quote] 

Маша и Медведь (59 серия)/
Game over
-
Год выпуска: 2016
Страна: Россия / Студия "Анимаккорд"
Жанр: Анимация, семейный, мультфильм
Продолжительность: 00:07:26
Перевод: Оригинал, язык-русский
Режиссер: Георгий Орлов
В ролях: Варвара Саранцева, Борис Кутневич, Марк Кутневич, Катя Кутневич,

Описание:
Медведь перестал выходить из дома, заниматься хозяйством и сажать свои любимые овощи! Маша и остальные лесные жители не на шутку обеспокоены и хотят помочь Медведю! Получится ли вернуть его к реальной жизни, или все, - Game over?!
- -

MediaInfo:

Общее
Уникальный идентификатор : 189783110633201512420275922320901309904 (0x8EC6E5C7323EA59F983FAA9A03FC85D0)
Полное имя : E:\TORRENTY\Films\Masha i Medved'.Game over.(59).WEB-DL.1080p\Masha i Medved'.Game over.(59).WEB-DL.1080p\Masha i Medved'.Game over.(59).WEB-DL.1080p.mkv
Формат : Matroska
Версия формата : Version 2
Размер файла : 206 Мбайт
Продолжительность : 7 м. 26 с.
Режим общего битрейта : Переменный
Общий поток : 3872 Кбит/сек
Дата кодирования : UTC 2016-10-14 23:38:51
Программа кодирования : mkvmerge v4.8.0 ('I Got The...') сборка от May 24 2011 03:12:58
Библиотека кодирования : libebml v1.2.0 + libmatroska v1.1.0
Видео
Идентификатор : 1
Формат : AVC
Формат/Информация : Advanced Video Codec
Профиль формата : High@L4
Параметр CABAC формата : Да
Параметр ReFrames формата : 2 кадра
Режим смешивания : Header stripping
Идентификатор кодека : V_MPEG4/ISO/AVC
Продолжительность : 7 м. 26 с.
Вид битрейта : Переменный
Битрейт : 3603 Кбит/сек
Максимальный битрейт : 40,0 Мбит/сек
Ширина : 1920 пикселей
Высота : 1080 пикселей
Соотношение сторон : 16:9
Режим частоты кадров : Постоянный
Частота кадров : 25,000 кадров/сек
Цветовое пространство : YUV
Субдискретизация насыщенности : 4:2:0
Битовая глубина : 8 бит
Тип развёртки : Прогрессивная
Бит/(Пиксели*Кадры) : 0.070
Размер потока : 192 Мбайт (93%)
Default : Да
Forced : Нет
Цветовой диапазон : Limited
Основные цвета : BT.709
Характеристики трансфера : BT.709
Коэффициенты матрицы : BT.709
Аудио
Идентификатор : 2
Формат : AC-3
Формат/Информация : Audio Coding 3
Расширение режима : CM (complete main)
Параметр Endianness формата : Big
Режим смешивания : Header stripping
Идентификатор кодека : A_AC3
Продолжительность : 7 м. 26 с.
Вид битрейта : Постоянный
Битрейт : 192 Кбит/сек
Каналы : 2 канала
Расположение каналов : Front: L R
Частота : 44,1 КГц
Частота кадров : 28,711 кадров/сек (1536 spf)
Метод сжатия : С потерями
Размер потока : 10,2 Мбайт (5%)
Default : Да
Forced : Нет
Качество: WEB-DLRip 1080p
Формат: Matroska
Данные видео: 1920x1080, MPEG4 AVC, 3603 Kbps, 25,000 fps, 0.070 Бит/(Пиксели*Кадры)
Аудио:: AC3, 192 Kbps, 2 ch, 44,1 kHz

Скриншоты


[Profile]  [PM] 
Display posts:    
Reply to topic

Current time is: 14-Oct 12:42

All times are UTC + 2



You cannot post new topics in this forum
You cannot reply to topics in this forum
You cannot edit your posts in this forum
You cannot delete your posts in this forum
You cannot vote in polls in this forum
You cannot attach files in this forum
You cannot download files in this forum