По соображениям совести / Hacksaw Ridge (Мэл Гибсон / Mel Gibson) [2016, Австралия, США, драма, военный, история, BDRip-AVC] MVO + Original + Sub (rus, eng)

Reply to topic
 
Author
Message

Satyr ®

Gender: Unknown

Longevity: 10 years

Posts: 14656

Reputation: 54 [+] [-]

Satyr · Post 13-Feb-2017 13:30

[Quote] 

По соображениям совести / Hacksaw Ridge«Based on the incredible true story»- Страна: Австралия, США
Жанр: драма, военный, история
Год выпуска: 2016
Продолжительность: 02:19:19
Перевод: Любительский (многоголосый, закадровый) (Студия "Paradox" & Omskbird records)
Оригинальная аудиодорожка: английский
Субтитры: русские (полные), английские (полные, SDH)
Навигация по главам: есть
Режиссер: Мэл Гибсон / Mel Gibson
В ролях: Эндрю Гарфилд (Desmond Doss), Сэм Уортингтон (Captain Glover), Тереза Палмер (Dorothy Schutte), Люк Брейси (Smitty Ryker), Винс Вон (Sgt Howell), Хьюго Уивинг (Tom Doss), Рэйчел Гриффитс (Bertha Doss), Натаниэль Бузолич (Harold «Hal» Doss), Ричард Роксбург (Colonel Stelzer), Фирэсс Дирани (Vito Rinnelli), Ричард Пирос (Teach), Джейкоб Уорнер (James Pinnick)
Описание: Медик Американской армии времён Второй Мировой войны Дезмонд Досс, который служил во время битвы за Окинаву, отказывается убивать людей и становится первым идейным уклонистом в американской истории, удостоенным Медали Почёта.- -Качество: BDRip-AVC (исходник - BDRemux|Hacksaw Ridge.2016.BDREMUX.NNMClub)
Формат видео: MKV
Видео: x264, 1152x482 (2.40:1) 23,976 fps, ~2820 kbps, 0.212 bit/pixel
Аудио 1: 48 kHz, AC3 Dolby Digital, 5.1 (Front: L C R, Side: L R, LFE) ch, ~448 kbps, [русский]
Аудио 2: 48 kHz, AC3 Dolby Digital, 5.1 (Front: L C R, Side: L R, LFE) ch, ~448 kbps, [английский]
Формат субтитров: softsub (SRT)-

MediaInfo | x264 log

Format : Matroska
Format version : Version 4 / Version 2
File size : 3.69 GiB
Duration : 2h 19 min
Overall bit rate : 3 791 kb/s
Movie name : По соображениям совести / Hacksaw Ridge (2016) :: AFM ::
Encoded date : UTC 2017-02-12 21:16:49
Writing application : mkvmerge v8.3.0 ('Over the Horizon') 32bit
Writing library : libebml v1.3.1 + libmatroska v1.4.2
Video
ID : 1
Format : AVC
Format/Info : Advanced Video Codec
Format profile : High@L4.1
Format settings, CABAC : Yes
Format settings, ReFrames : 11 frames
Codec ID : V_MPEG4/ISO/AVC
Duration : 2h 19 min
Bit rate : 2 820 kb/s
Width : 1 152 pixels
Height : 482 pixels
Display aspect ratio : 2.40:1
Frame rate mode : Constant
Frame rate : 23.976 (24000/1001) FPS
Color space : YUV
Chroma subsampling : 4:2:0
Bit depth : 8 bits
Scan type : Progressive
Bits/(Pixel*Frame) : 0.212
Stream size : 2.74 GiB (74%)
Title : BDRip by AFM
Writing library : x264 core 148 r2762+56 6284cf3 t_mod_Custom [8-bit@all X86_64]
Encoding settings : cabac=1 / ref=11 / deblock=1:-2:-2 / analyse=0x3:0x133 / me=umh / subme=10 / psy=1 / fade_compensate=0.00 / psy_rd=1.00:0.00 / mixed_ref=1 / me_range=32 / chroma_me=1 / trellis=2 / 8x8dct=1 / cqm=0 / deadzone=21,11 / fast_pskip=0 / chroma_qp_offset=-2 / threads=6 / lookahead_threads=1 / sliced_threads=0 / nr=0 / decimate=1 / interlaced=0 / bluray_compat=0 / constrained_intra=0 / fgo=0 / bframes=12 / b_pyramid=2 / b_adapt=2 / b_bias=0 / direct=1 / weightb=1 / open_gop=0 / weightp=2 / keyint=240 / keyint_min=23 / scenecut=40 / intra_refresh=0 / rc_lookahead=60 / rc=crf / mbtree=0 / crf=17.3000 / qcomp=0.70 / qpmin=0:0:0 / qpmax=69:69:69 / qpstep=4 / vbv_maxrate=50000 / vbv_bufsize=62500 / crf_max=0.0 / nal_hrd=none / filler=0 / ip_ratio=1.35 / pb_ratio=1.25 / aq=3:0.85 / aq-sensitivity=10.00 / aq-factor=1.00:1.00:1.00 / aq2=0 / aq3=0 / zones=1540,4570,crf=16.9/23216,26900,crf=17/39950,47485,crf=17.1/49400,51130,crf=17/57645,60460,crf=17/65068,65827,crf=17/91480,92586,crf=16.8/95860,98494,crf=16.9/102900,120820,crf=16.8/120821,131428,crf=17/131710,163573,crf=16.8/165395,170550,crf=16.8/177200,183720,crf=16.8/183721,185088,crf=17/188371,200431,q=27
Language : English
Default : Yes
Forced : No
Audio #1
ID : 2
Format : AC-3
Format/Info : Audio Coding 3
Mode extension : CM (complete main)
Format settings, Endianness : Big
Codec ID : A_AC3
Duration : 2h 19 min
Bit rate mode : Constant
Bit rate : 448 kb/s
Channel(s) : 6 channels
Channel positions : Front: L C R, Side: L R, LFE
Sampling rate : 48.0 kHz
Frame rate : 31.250 FPS (1536 spf)
Compression mode : Lossy
Stream size : 446 MiB (12%)
Title : MVO, AC3 5.1 ~448 kbps
Language : Russian
Default : Yes
Forced : No
Audio #2
ID : 3
Format : AC-3
Format/Info : Audio Coding 3
Mode extension : CM (complete main)
Format settings, Endianness : Big
Codec ID : A_AC3
Duration : 2h 19 min
Bit rate mode : Constant
Bit rate : 448 kb/s
Channel(s) : 6 channels
Channel positions : Front: L C R, Side: L R, LFE
Sampling rate : 48.0 kHz
Frame rate : 31.250 FPS (1536 spf)
Compression mode : Lossy
Stream size : 446 MiB (12%)
Title : Original, AC3 5.1 ~448 kbps
Language : English
Default : No
Forced : No
Text #1
ID : 4
Format : UTF-8
Codec ID : S_TEXT/UTF8
Codec ID/Info : UTF-8 Plain Text
Language : Russian
Default : No
Forced : No
Text #2
ID : 5
Format : UTF-8
Codec ID : S_TEXT/UTF8
Codec ID/Info : UTF-8 Plain Text
Language : English
Default : No
Forced : No
Text #3
ID : 6
Format : UTF-8
Codec ID : S_TEXT/UTF8
Codec ID/Info : UTF-8 Plain Text
Title : SDH
Language : English
Default : No
Forced : No
Menu
00:00:00.000 : en:Chapter 1
00:09:18.765 : en:Chapter 2
00:18:41.993 : en:Chapter 3
00:26:34.509 : en:Chapter 4
00:33:00.560 : en:Chapter 5
00:40:04.150 : en:Chapter 6
00:50:07.211 : en:Chapter 7
00:57:01.541 : en:Chapter 8
01:04:21.648 : en:Chapter 9
01:17:50.207 : en:Chapter 10
01:23:58.698 : en:Chapter 11
01:31:21.725 : en:Chapter 12
01:39:02.810 : en:Chapter 13
01:46:07.569 : en:Chapter 14
01:59:48.305 : en:Chapter 15
02:07:13.292 : en:Chapter 16

x264

x264 [info]: frame I:1840 Avg QP:14.65 size: 79632
x264 [info]: frame P:44746 Avg QP:16.37 size: 30108
x264 [info]: frame B:153845 Avg QP:18.16 size: 9941
x264 [info]: consecutive B-frames: 2.7% 2.5% 9.0% 24.3% 19.2% 28.2% 5.2% 3.2% 2.4% 1.3% 0.6% 0.7% 0.8%
x264 [info]: mb I I16..4: 3.9% 78.2% 17.9%
x264 [info]: mb P I16..4: 1.1% 16.5% 3.1% P16..4: 31.8% 23.0% 15.5% 0.8% 0.2% skip: 8.0%
x264 [info]: mb B I16..4: 0.1% 1.7% 0.5% B16..8: 34.7% 15.4% 4.4% direct: 5.7% skip:37.4% L0:43.7% L1:42.1% BI:14.2%
x264 [info]: 8x8 transform intra:78.2% inter:60.1%
x264 [info]: coded y,uvDC,uvAC intra: 87.2% 88.7% 68.4% inter: 26.2% 18.9% 2.8%
x264 [info]: i16 v,h,dc,p: 32% 10% 7% 51%
x264 [info]: i8 v,h,dc,ddl,ddr,vr,hd,vl,hu: 14% 9% 8% 9% 12% 12% 13% 11% 13%
x264 [info]: i4 v,h,dc,ddl,ddr,vr,hd,vl,hu: 27% 5% 4% 8% 13% 12% 12% 9% 11%
x264 [info]: i8c dc,h,v,p: 43% 24% 20% 13%
x264 [info]: Weighted P-Frames: Y:5.1% UV:1.9%
x264 [info]: ref P L0: 48.5% 11.8% 15.6% 6.0% 5.1% 3.5% 3.2% 1.7% 1.7% 1.3% 1.4% 0.1% 0.0%
x264 [info]: ref B L0: 75.2% 10.5% 5.2% 2.7% 1.9% 1.6% 1.2% 0.8% 0.5% 0.2%
x264 [info]: ref B L1: 95.0% 5.0%
x264 [info]: kb/s:2893.05

Скриншоты

с названием

[Profile]  [PM] 
Display posts:    
Reply to topic

Current time is: 16-Dec 10:50

All times are UTC + 2



You cannot post new topics in this forum
You cannot reply to topics in this forum
You cannot edit your posts in this forum
You cannot delete your posts in this forum
You cannot vote in polls in this forum
You cannot attach files in this forum
You cannot download files in this forum