Когда зовет сердце / When Calls the Heart (Майкл Лэндон (младший) / Michael Landon Jr.) [2013, США, Драма, экранизация, приключения, мелодрама, HDTVRip] DVO (RedDiamond Studio) + Original Eng

Reply to topic
 
Author
Message

Satyr ®

Gender: Unknown

Longevity: 11 years

Posts: 15401

Reputation: 55 [+] [-]

Satyr · Post 20-Feb-2017 21:25

[Quote] 

Когда зовет сердце / When Calls the Heart
Страна: США
Жанр: Драма, экранизация, приключения, мелодрама
Год выпуска: 2013
Продолжительность: 01:29:44
Перевод: Любительский (двухголосый закадровый) RedDiamond Studio
Cубтитры: нет
Оригинальная аудиодорожка: английский
Режиссер: Майкл Лэндон (младший) / Michael Landon Jr.
В ролях: Стивен Амелл, Мэгги Грэйс, Лори Лафлин, Дэниэл Шарман, Джин Смарт, Наташа Калис, Кристофер Вилльерс, Шери Лунги, Ли Уильямс, Поппи Дрейтон
Описание: По роману Джанетт Ок (Janette Oke).Элизабет Тэтчер — молодая школьная учительница из богатой семьи. Она уезжает из большого города, чтобы преподавать в школе в маленьком шахтёрском городке…
Данный фильм является предысторией к сериалу "Когда зовёт сердце", который вышел в США в январе 2014, премьера этого фильма состоялась 19 октября 2013 на телеканале "Холлмарк".
Сэмпл: https://yadi.sk/i/A3061_xR3EDWnr
Качество видео: HDTVRip
Формат видео: AVI
Видео: XviD, 704х400 (16:9) 23.976 Fps, 1996 Kbps, 0.296 Bits/Pixel
Аудио: АС3, 48 000 Hz, 192 kbps, stereo (Rus)
Аудио 2: АС3, 48 000 Hz, 192 kbps, stereo (Original eng)

MediaInfo

General
Complete name : D:\When calls the heart.avi
Format : AVI
Format/Info : Audio Video Interleave
File size : 1.50 GiB
Duration : 1h 29mn
Overall bit rate : 2 394 Kbps
Writing application : VirtualDubMod 1.5.10.3 | www.virtualdub-fr.org || (build 2550/release)
Writing library : VirtualDubMod build 2550/release
Video
ID : 0
Format : MPEG-4 Visual
Format profile : Advanced Simple@L5
Format settings, BVOP : 2
Format settings, QPel : No
Format settings, GMC : No warppoints
Format settings, Matrix : Default (H.263)
Codec ID : XVID
Codec ID/Hint : XviD
Duration : 1h 29mn
Bit rate : 1 996 Kbps
Width : 704 pixels
Height : 400 pixels
Display aspect ratio : 16:9
Frame rate : 23.976 fps
Color space : YUV
Chroma subsampling : 4:2:0
Bit depth : 8 bits
Scan type : Progressive
Compression mode : Lossy
Bits/(Pixel*Frame) : 0.296
Stream size : 1.25 GiB (83%)
Writing library : XviD 73
Audio #1
ID : 1
Format : AC-3
Format/Info : Audio Coding 3
Mode extension : CM (complete main)
Format settings, Endianness : Big
Codec ID : 2000
Duration : 1h 29mn
Bit rate mode : Constant
Bit rate : 192 Kbps
Channel(s) : 2 channels
Channel positions : Front: L R
Sampling rate : 48.0 KHz
Bit depth : 16 bits
Compression mode : Lossy
Stream size : 123 MiB (8%)
Alignment : Split accross interleaves
Interleave, duration : 42 ms (1.00 video frame)
Interleave, preload duration : 500 ms
Audio #2
ID : 2
Format : AC-3
Format/Info : Audio Coding 3
Mode extension : CM (complete main)
Format settings, Endianness : Big
Codec ID : 2000
Duration : 1h 29mn
Bit rate mode : Constant
Bit rate : 192 Kbps
Channel(s) : 2 channels
Channel positions : Front: L R
Sampling rate : 48.0 KHz
Bit depth : 16 bits
Compression mode : Lossy
Stream size : 123 MiB (8%)
Alignment : Split accross interleaves
Interleave, duration : 42 ms (1.00 video frame)
Interleave, preload duration : 500 ms

Скриншот c названием фильма

Скриншоты

[Profile]  [PM] 
Display posts:    
Reply to topic

Current time is: 25-Nov 12:48

All times are UTC + 2



You cannot post new topics in this forum
You cannot reply to topics in this forum
You cannot edit your posts in this forum
You cannot delete your posts in this forum
You cannot vote in polls in this forum
You cannot attach files in this forum
You cannot download files in this forum