Проникая в кровь / I blodet (Расмус Хейстерберг / Rasmus Heisterberg) [2016, Дания, драма, BDRip 720p] + Sub Rus, Eng, Dan + Original Dan

Reply to topic
 
Author
Message

Faust ®

Gender: Unknown

Longevity: 9 years 2 months

Posts: 14058

Reputation: 0 [+] [-]

Faust · Post 21-Feb-2017 17:50

[Quote] 

Проникая в кровь / I blodet
Страна: Дания
Студия: Profile Pictures
Жанр: драма
Год выпуска: 2016
Продолжительность: 01:45:16
Перевод: Субтитры
Cубтитры: Rus, Eng, Dan
Оригинальная аудиодорожка: датский
Режиссер: Расмус Хейстерберг / Rasmus Heisterberg
В ролях: Кристоффер Бек, Аске Банг, Эллиот Кроссет Хоув, Мадс Реутер, Виктория Кармен Сонне, Леа Грегерсен, Эсбен Дальгор Андерсен, Зиннини Элкингтон
Описание: Симон - студент-медик живёт в квартире вместе со своими друзьями Кнудом, Сёреном и Эсбеном. Друзья не только успевают учиться в Копенгагенском университете, но и отрываться по полной, зависая на вечеринках и развлекаясь с девушками. Но незаметно в их отношениях начинает возникать разлад. Эсбен и Сёрен съезжают из квартиры, а Кнуд поддерживает их решение продать её. Однако Симон прохладно относится к этой идее и не собирается прощаться с легкомысленной юностью...
Фильм о мечте, дружбе, любви, одиночестве.

Тип релиза: BDRip 720p
Контейнер: MKV
Видео: MPEG-4 AVC, 5708 Кбит/с, 1280x538, 24.000 fps
Аудио: Dan, AC3, 640 kb/s (6 ch), 48 kHz
Формат субтитров: softsub (SRT)

MediaInfo

x264 [info]: frame I:833 Avg QP:13.11 size: 84662
x264 [info]: frame P:32704 Avg QP:14.61 size: 43114
x264 [info]: frame B:118055 Avg QP:16.03 size: 26484
Format : Matroska
Format version : Version 4 / Version 2
File size : 4.76 GiB
Duration : 1h 45mn
Overall bit rate : 6 477 Kbps
Movie name : Проникая в кровь. (Tonik)
Encoded date : UTC 2017-02-17 05:00:26
Writing application : mkvmerge v7.1.0 ('Good Love') 64bit built on Jul 27 2014 13:06:55
Writing library : libebml v1.3.0 + libmatroska v1.4.1
_STATISTICS_WRITING_APP : mkvmerge v7.1.0 ('Good Love') 64bit built on Jul 27 2014 13:06:55
_STATISTICS_WRITING_DATE_UTC : 2017-02-17 05:00:26
_STATISTICS_TAGS : BPS DURATION NUMBER_OF_FRAMES NUMBER_OF_BYTES
DURATION : 01:39:01.046000000
NUMBER_OF_FRAMES : 759
NUMBER_OF_BYTES : 51809
Video
ID : 1
Format : AVC
Format/Info : Advanced Video Codec
Format profile : High@L4.1
Format settings, CABAC : Yes
Format settings, ReFrames : 12 frames
Codec ID : V_MPEG4/ISO/AVC
Duration : 1h 45mn
Bit rate : 5 708 Kbps
Width : 1 280 pixels
Height : 538 pixels
Display aspect ratio : 2.40:1
Frame rate mode : Constant
Frame rate : 24.000 fps
Color space : YUV
Chroma subsampling : 4:2:0
Bit depth : 8 bits
Scan type : Progressive
Bits/(Pixel*Frame) : 0.345
Stream size : 4.20 GiB (88%)
Writing library : x264 core 148 r2744kMod b97ae06
Encoding settings : cabac=1 / ref=12 / deblock=1:-3:-3 / analyse=0x3:0x133 / me=umh / subme=10 / psy=1 / fade_compensate=0.00 / psy_rd=1.00:0.00 / mixed_ref=1 / me_range=24 / chroma_me=1 / trellis=2 / 8x8dct=1 / cqm=0 / deadzone=21,11 / fast_pskip=0 / chroma_qp_offset=-2 / threads=56 / lookahead_threads=4 / sliced_threads=0 / nr=0 / decimate=0 / interlaced=0 / bluray_compat=0 / constrained_intra=0 / bframes=7 / b_pyramid=2 / b_adapt=2 / b_bias=0 / direct=3 / weightb=1 / open_gop=0 / weightp=2 / keyint=250 / keyint_min=24 / scenecut=40 / intra_refresh=0 / rc_lookahead=60 / rc=crf / mbtree=0 / crf=17.0000 / qcomp=0.60 / qpmin=0 / qpmax=69 / qpstep=4 / vbv_maxrate=62500 / vbv_bufsize=78125 / crf_max=0.0 / nal_hrd=none / filler=0 / ip_ratio=1.30 / pb_ratio=1.20 / aq=3:0.80
Language : English
Default : Yes
Forced : No
Matrix coefficients : BT.709
_STATISTICS_WRITING_APP : mkvmerge v7.1.0 ('Good Love') 64bit built on Jul 27 2014 13:06:55
_STATISTICS_WRITING_DATE_UTC : 2017-02-17 05:00:26
_STATISTICS_TAGS : BPS DURATION NUMBER_OF_FRAMES NUMBER_OF_BYTES
DURATION : 01:45:16.334000000
NUMBER_OF_FRAMES : 151592
NUMBER_OF_BYTES : 4607136918
Audio
ID : 2
Format : AC-3
Format/Info : Audio Coding 3
Mode extension : CM (complete main)
Format settings, Endianness : Big
Codec ID : A_AC3
Duration : 1h 45mn
Bit rate mode : Constant
Bit rate : 640 Kbps
Channel(s) : 6 channels
Channel positions : Front: L C R, Side: L R, LFE
Sampling rate : 48.0 KHz
Bit depth : 16 bits
Compression mode : Lossy
Stream size : 482 MiB (10%)
Language : Danish
Default : Yes
Forced : No
Text #1
ID : 3
Format : UTF-8
Codec ID : S_TEXT/UTF8
Codec ID/Info : UTF-8 Plain Text
Language : Russian
Default : Yes
Forced : No
Text #2
ID : 4
Format : UTF-8
Codec ID : S_TEXT/UTF8
Codec ID/Info : UTF-8 Plain Text
Language : Danish
Default : No
Forced : No
Text #3
ID : 5
Format : UTF-8
Codec ID : S_TEXT/UTF8
Codec ID/Info : UTF-8 Plain Text
Language : English
Default : No
Forced : No
Menu
00:00:00.000 : en:00:00:00.000
00:14:47.875 : en:00:14:47.875
00:28:58.167 : en:00:28:58.167
00:43:01.833 : en:00:43:01.833
00:59:01.375 : en:00:59:01.375
01:14:34.500 : en:01:14:34.500
01:28:49.583 : en:01:28:49.583
01:41:03.833 : en:01:41:03.833

Скриншоты

[Profile]  [PM] 
Display posts:    
Reply to topic

Current time is: 28-Nov 09:17

All times are UTC + 2



You cannot post new topics in this forum
You cannot reply to topics in this forum
You cannot edit your posts in this forum
You cannot delete your posts in this forum
You cannot vote in polls in this forum
You cannot attach files in this forum
You cannot download files in this forum