Каббала. Интервью с будущим (серии 1-3 из 3) (Максим Матушевский) [2006, телепередача, WEB-DL Rip 720p]

Reply to topic
 
Author
Message

krasyarBB ®

Gender: Unknown

Longevity: 8 years 2 months

Posts: 32

Reputation: 0 [+] [-]

krasyarBB · Post 09-May-2013 16:21

[Quote] 

Каббала. Интервью с будущим / серии 1-3 из 3 -Год выпуска: 2006
Страна: Россия, Израиль
Производство: ARI Films
Жанр: телепередача
Продолжительность: 02:03:30
Перевод: оригинал (русский язык)
Субтитры: нет-В ролях: Михаэль Лайтман
Режиссёр: Максим Матушевский-Описание: Можем ли мы определить, Кто или Что на нас воздействует? Почему мы испытываем страдания? Откуда берутся наши желания и как управлять ими? Возможно ли вечное наслаждение? Какова цель нашей жизни?-Качество: WEB-DL Rip 720p
Формат: MP4
Видео кодек: MPEG-4 AVC (H.264)
Аудио кодек: AAC
Видео: 1280 x 720, 25,000 fps, ~ 1600 Kbps, ~ 0.065 bit/pixel
Аудио: 44,1 kHz, 2 (L,R) ch, ~ 85 kb/s

СЭМПЛ

Скриншоты

Расскадровка

MediaInfo

Общее
Полное имя : Kabbala-intervju_s_budushhim\Каббала. Интервью с будущим. Мужчина и женщина. Две стихии.mp4
Формат : MPEG-4
Профиль формата : Base Media
Идентификатор кодека : isom
Размер файла : 615 Мбайт
Продолжительность : 51 м.
Режим общего битрейта : Переменный
Общий поток : 1663 Кбит/сек
Название фильма : ТВ Передача "Интервью с будущим". Мужчина и женщина
Программа кодирования : Lavf52.93.0
Примечание : ТВ Передача "Интервью с будущим". Мужчина и женщина
Видео
Идентификатор : 1
Формат : AVC
Формат/Информация : Advanced Video Codec
Профиль формата : Baseline@L3.1
Параметр CABAC формата : Нет
Параметр ReFrames формата : 1 кадр
Параметр GOP формата : N=1
Идентификатор кодека : avc1
Идентификатор кодека/Информация : Advanced Video Coding
Продолжительность : 51 м.
Битрейт : 1576 Кбит/сек
Ширина : 1280 пикселей
Высота : 720 пикселей
Соотношение сторон : 16:9
Режим частоты кадров : Постоянный
Частота кадров : 25,000 кадров/сек
Цветовое пространство : YUV
Субдискретизация насыщенности : 4:2:0
Битовая глубина : 8 бит
Тип развёртки : Прогрессивная
Бит/(Пиксели*Кадры) : 0.068
Размер потока : 583 Мбайт (95%)
Библиотека кодирования : x264 core 112
Настройки программы : cabac=0 / ref=1 / deblock=1:0:0 / analyse=0x1:0x111 / me=hex / subme=7 / psy=1 / psy_rd=1.00:0.00 / mixed_ref=0 / me_range=16 / chroma_me=1 / trellis=1 / 8x8dct=0 / cqm=0 / deadzone=21,11 / fast_pskip=1 / chroma_qp_offset=-2 / threads=1 / sliced_threads=0 / nr=0 / decimate=1 / interlaced=0 / constrained_intra=0 / bframes=0 / weightp=0 / keyint=250 / keyint_min=25 / scenecut=40 / intra_refresh=0 / rc_lookahead=40 / rc=abr / mbtree=1 / bitrate=1576 / ratetol=1.0 / qcomp=0.60 / qpmin=10 / qpmax=51 / qpstep=4 / ip_ratio=1.41 / aq=1:1.00
Аудио
Идентификатор : 2
Формат : AAC
Формат/Информация : Advanced Audio Codec
Профиль формата : LC
Идентификатор кодека : 40
Продолжительность : 51 м.
Вид битрейта : Переменный
Битрейт : 84,1 Кбит/сек
Каналы : 2 канала
Расположение каналов : Front: L R
Частота : 44,1 КГц
Метод сжатия : С потерями
Размер потока : 31,1 Мбайт (5%)

Список серий

01. Каббала. Интервью с будущим. Мужчина и женщина. Две стихии (51:42)
02. Каббала. Интервью с будущим. Человек и творец-1 (34:35)
03. Каббала. Интервью с будущим. Человек и творец-2 (37:11)
[Profile]  [PM] 
Display posts:    
Reply to topic

Current time is: 25-May 20:59

All times are UTC + 2



You cannot post new topics in this forum
You cannot reply to topics in this forum
You cannot edit your posts in this forum
You cannot delete your posts in this forum
You cannot vote in polls in this forum
You cannot attach files in this forum
You cannot download files in this forum