Грязная работа / Dirty Work (Боб Сагет / Bob Saget) [1998, Канада, США, комедия, BDRemux 1080p] MVO (Варус Видео) + DVO (НТВ+) + AVO (Александр Кашкин) + AVO (Сергей Визгунов) + Sub Eng + Original Eng

Reply to topic
 
Author
Message

Faust ®

Gender: Unknown

Longevity: 12 years

Posts: 23187

Reputation: 0 [+] [-]

Faust · Post 08-Jun-2023 17:55

[Quote] 

Грязная работа / Dirty Work
Страна: Канада, США
Жанр: комедия
Год выпуска: 1998
Продолжительность: 01:21:32
Перевод 1: Профессиональный (многоголосый закадровый) Варус Видео
Перевод 2: Профессиональный (двухголосый закадровый) НТВ+
Перевод 3: Авторский (одноголосый закадровый) Александр Кашкин
Перевод 4: Авторский (одноголосый закадровый) Сергей Визгунов
Субтитры: английские
Оригинальная аудиодорожка: английский
Режиссер: Боб Сагет / Bob Saget
В ролях: Норм МакДональд, Арти Лэнг, Джек Уорден, Трейлор Ховард, Дон Риклз, Кристофер МакДональд, Чеви Чейз, Брэдли Рейд, Мэтт Стейнберг, Джозеф Сицилия
Описание: Два друга с детства никому не прощали обиды. Им удавалось очень изобретательно мстить своим обидчикам, устраивая разные гадости. Прошли годы, ребята выросли. Отец одного из них заболел - требовалась пересадка сердца, а для этого нужно было достать 50 тыс. долларов. Так как, кроме гадостей, ребята ничего делать так и не научились, они открыли фирму, чтобы мстить за тех, кто не любил сам делать «грязную работу»...

Релиз от: by
Тип релиза: BDRemux 1080p
Контейнер: MKV
Видео: MPEG-4 AVC, 31059 Kбит/с, 1920x1080, 23.976 кадр/с
Аудио 1: Russian: 48 kHz, AC3, 2/0 (L,R) ch, ~192 kbps avg | Варус Видео
Аудио 2: Russian: 48 kHz, AC3, 2/0 (L,R) ch, ~192 kbps avg | НТВ+
Аудио 3: Russian: 48 kHz, AC3, 2/0 (L,R) ch, ~192 kbps avg | Александр Кашкин
Аудио 4: Russian: DTS-HD MА / 4208 kbps / 5.1 / 48 kHz / 24-bit (DTS Core: 5.1 / 48 kHz / 1509 kbps / 24-bit) | Сергей Визгунов
Аудио 5: English: DTS-HD MА / 4144 kbps / 5.1 / 48 kHz / 24-bit (DTS Core: 5.1 / 48 kHz / 1509 kbps / 24-bit)

MediaInfo

GeneralUnique ID                      : 202931714558027896844579903633840024221 (0x98AB3A00B571ADF2B50711458BAE2A9D)Complete name                  : D:\фильмы\Dirty.Work.1998.1080p.Bluray.Remux.Kinozal-Райдэн.mkvFormat                         : MatroskaFormat version                 : Version 4 / Version 2File size                      : 22.8 GiBDuration                       : 1h 21mnOverall bit rate mode          : VariableOverall bit rate               : 40.0 MbpsEncoded date                   : UTC 2023-06-05 14:01:21Writing application            : mkvmerge v6.9.1 ('Blue Panther') 32bit built on Apr 18 2014 18:15:44Writing library                : libebml v1.3.0 + libmatroska v1.4.1
VideoID : 1Format : AVCFormat/Info : Advanced Video CodecFormat profile : High@L4.1Format settings, CABAC : YesFormat settings, ReFrames : 4 framesCodec ID : V_MPEG4/ISO/AVCDuration : 1h 21mnBit rate mode : ConstantNominal bit rate : 31.8 MbpsWidth : 1 920 pixelsHeight : 1 080 pixelsDisplay aspect ratio : 16:9Frame rate mode : ConstantFrame rate : 23.976 fpsColor space : YUVChroma subsampling : 4:2:0Bit depth : 8 bitsScan type : ProgressiveBits/(Pixel*Frame) : 0.640Title : Release for Kinozal by РайдэнLanguage : EnglishDefault : YesForced : No
Audio #1ID : 2Format : AC-3Format/Info : Audio Coding 3Mode extension : CM (complete main)Format settings, Endianness : BigCodec ID : A_AC3Duration : 1h 21mnBit rate mode : ConstantBit rate : 192 KbpsChannel(s) : 2 channelsChannel positions : Front: L RSampling rate : 48.0 KHzBit depth : 16 bitsCompression mode : LossyStream size : 112 MiB (0%)Title : MVO (Варус Видео)Language : RussianDefault : YesForced : No
Audio #2ID : 3Format : AC-3Format/Info : Audio Coding 3Mode extension : CM (complete main)Format settings, Endianness : BigCodec ID : A_AC3Duration : 1h 21mnBit rate mode : ConstantBit rate : 192 KbpsChannel(s) : 2 channelsChannel positions : Front: L RSampling rate : 48.0 KHzBit depth : 16 bitsCompression mode : LossyStream size : 112 MiB (0%)Title : DVO (НТВ+)Language : RussianDefault : NoForced : No
Audio #3ID : 4Format : AC-3Format/Info : Audio Coding 3Mode extension : CM (complete main)Format settings, Endianness : BigCodec ID : A_AC3Duration : 1h 21mnBit rate mode : ConstantBit rate : 192 KbpsChannel(s) : 2 channelsChannel positions : Front: L RSampling rate : 48.0 KHzBit depth : 16 bitsCompression mode : LossyStream size : 112 MiB (0%)Title : AVO (Александр Кашкин)Language : RussianDefault : NoForced : No
Audio #4ID : 5Format : DTSFormat/Info : Digital Theater SystemsFormat profile : MA / CoreMode : 16Format settings, Endianness : BigCodec ID : A_DTSDuration : 1h 21mnBit rate mode : VariableBit rate : Unknown / 1 509 KbpsChannel(s) : 6 channelsChannel positions : Front: L C R, Side: L R, LFESampling rate : 48.0 KHzBit depth : 24 bitsCompression mode : Lossless / LossyTitle : AVO (Сергей Визгунов)Language : RussianDefault : NoForced : No
Audio #5ID : 6Format : DTSFormat/Info : Digital Theater SystemsFormat profile : MA / CoreMode : 16Format settings, Endianness : BigCodec ID : A_DTSDuration : 1h 21mnBit rate mode : VariableBit rate : Unknown / 1 509 KbpsChannel(s) : 6 channelsChannel positions : Front: L C R, Side: L R, LFESampling rate : 48.0 KHzBit depth : 24 bitsCompression mode : Lossless / LossyLanguage : EnglishDefault : NoForced : No
Text #1ID : 7Format : UTF-8Codec ID : S_TEXT/UTF8Codec ID/Info : UTF-8 Plain TextLanguage : EnglishDefault : NoForced : No
Text #2ID : 8Format : UTF-8Codec ID : S_TEXT/UTF8Codec ID/Info : UTF-8 Plain TextLanguage : EnglishDefault : NoForced : No

Скриншоты

[Profile]  [PM] 
Display posts:    
Reply to topic

Current time is: 20-Jul 02:39

All times are UTC + 2



You cannot post new topics in this forum
You cannot reply to topics in this forum
You cannot edit your posts in this forum
You cannot delete your posts in this forum
You cannot vote in polls in this forum
You cannot attach files in this forum
You cannot download files in this forum