Экзорцист Ватикана / The Pope\'s Exorcist (Джулиус Эйвери / Julius Avery) [2023, США, Великобритания, Испания, ужасы, WEBRip 1080p] Dub (MovieDalen) + 2x MVO (Jaskier, TVShows) + Dub (Ukr) + Original (Eng) + Sub (Rus, Eng, Ukr, Heb)

Reply to topic
 
Author
Message

Faust ®

Gender: Unknown

Longevity: 12 years

Posts: 23217

Reputation: 0 [+] [-]

Faust · Post 09-Jun-2023 10:15

[Quote] 

Экзорцист Ватикана
The Pope's Exorcist- Страна: США, Великобритания, Испания
Студия: Screen Gems, 2.0 Entertainment, Loyola Productions
Жанр: ужасы
Год выпуска: 2023
Продолжительность: 01:43:29-Перевод 1: Профессиональный (дублированный) - MovieDalen [Казахстан, для СНГ]
Роли дублировали: Виталий Давыдов, Темирлан Ахметов, Лариса Фатеева-Гронзик, Евгений Жуманов, Денис Гриднев, Лилия Касаткина, Илья Шилкин, Рауф Хабибуллин, Мария Иващенко, Ольга Бобрик, Дмитрий Дягилев, Ксения Кузнецова, Иван Савоськин
Перевод 2: Профессиональный (многоголосый закадровый) - Jaskier 18+
Перевод 3: Профессиональный (многоголосый закадровый) - TVShows
Перевод 4 (украинский): Профессиональный (дублированный)
Субтитры: русские (Forced, Full |iTunes|), английские (Forced, Full, SDH), украинские (Forced, Full), иврит
Оригинальная аудиодорожка: английский-Режиссер: Джулиус Эйвери / Julius Avery
В ролях: Рассел Кроу, Дэниэл Дзоватто, Александра Эссоу, Франко Неро, Питер ДеСоуза-Фейхони, Лорел Марсден, Корнелл Джон, Райан О’Грэйди, Бьянка Бардо, Санти Байон, Палома Блойд, Алессандро Груттадауриа, Люк Хоукинс, Джорди Колле, Кэрри Манро-Описание: Получив в наследство аббатство в Испании, вдова с двумя детьми проводила в здании ремонт, когда в её сына вселился дьявол и первым делом потребовал привести к нему священника. Знаменитый экзорцист Габриэль Аморт по заданию Папы Римского отправляется спасать мальчика и по приезде сразу понимает, что демон ему попался очень сильный и коварный.-Тип релиза: WEBRip 1080p | HiDt (HDBits)
Контейнер: MKV (Сэмпл)
Видео: MPEG-4 AVC / 1920x804 / 14877 kbps / 23.976 fps / 2.40:1
Аудио 1: Русский AC-3 5.1 / 384 kbps / 48 kHz / Dub (MovieDalen)
Аудио 2: Русский AC-3 5.1 / 384 kbps / 48 kHz / MVO (Jaskier)
Аудио 3: Русский AC-3 5.1 / 384 kbps / 48 kHz / MVO (TVShows)
Аудио 4: Украинский E-AC-3 5.1 / 384 kbps / 48 kHz
Аудио 5: Английский E-AC-3 Atmos 5.1 / 768 kbps / 48 kHz
Формат субтитров: softsub (SRT)
Навигация по главам: есть- -

MediaInfo

x264 [info]: frame I:1058  Avg QP:11.25  size:212595x264 [info]: frame P:30509 Avg QP:12.87  size:117024x264 [info]: frame B:117315 Avg QP:13.69  size: 66087
GeneralUnique ID : 171330328962855130450903027803447681966 (0x80E505665BF63EDB61B75A8288D4E3AE)Complete name : The.Popes.Exorcist.2023.1080p.WEBRip.DDP5.1.x264-HiDt_EniaHD.mkvFormat : MatroskaFormat version : Version 4File size : 12.4 GiBDuration : 1 h 43 minOverall bit rate : 17.2 Mb/sFrame rate : 23.976 FPSMovie name : The Pope's Exorcist (2023) - EniaHDWriting application : mkvmerge v57.0.0 ('Till The End') 64-bitWriting library : libebml v1.4.2 + libmatroska v1.6.4
VideoID : 1Format : AVCFormat/Info : Advanced Video CodecFormat profile : High@L4.1Format settings : CABAC / 5 Ref FramesFormat settings, CABAC : YesFormat settings, Reference fra : 5 framesCodec ID : V_MPEG4/ISO/AVCDuration : 1 h 43 minBit rate : 14.9 Mb/sWidth : 1 920 pixelsHeight : 804 pixelsDisplay aspect ratio : 2.40:1Frame rate mode : ConstantFrame rate : 23.976 (24000/1001) FPSColor space : YUVChroma subsampling : 4:2:0Bit depth : 8 bitsScan type : ProgressiveBits/(Pixel*Frame) : 0.402Stream size : 10.8 GiB (87%)Writing library : x264 core 164 r3107 a8b68ebEncoding settings : cabac=1 / ref=5 / deblock=1:-3:-3 / analyse=0x3:0x133 / me=tesa / subme=11 / psy=1 / psy_rd=1.00:0.00 / mixed_ref=1 / me_range=48 / chroma_me=1 / trellis=2 / 8x8dct=1 / cqm=0 / deadzone=21,11 / fast_pskip=0 / chroma_qp_offset=-2 / threads=25 / lookahead_threads=6 / sliced_threads=0 / nr=0 / decimate=0 / interlaced=0 / bluray_compat=0 / constrained_intra=0 / bframes=12 / b_pyramid=2 / b_adapt=2 / b_bias=0 / direct=3 / weightb=1 / open_gop=0 / weightp=2 / keyint=240 / keyint_min=22 / scenecut=40 / intra_refresh=0 / rc_lookahead=120 / rc=crf / mbtree=0 / crf=16.6 / qcomp=0.60 / qpmin=0 / qpmax=69 / qpstep=4 / vbv_maxrate=62500 / vbv_bufsize=78125 / crf_max=0.0 / nal_hrd=none / filler=0 / ip_ratio=1.27 / pb_ratio=1.16 / aq=3:1.00 / zones=141450,148881,crf=23Default : YesForced : No
Audio #1ID : 2Format : AC-3Format/Info : Audio Coding 3Commercial name : Dolby DigitalCodec ID : A_AC3Duration : 1 h 43 minBit rate mode : ConstantBit rate : 384 kb/sChannel(s) : 6 channelsChannel layout : L R C LFE Ls RsSampling rate : 48.0 kHzFrame rate : 31.250 FPS (1536 SPF)Compression mode : LossyStream size : 284 MiB (2%)Title : MovieDalenLanguage : RussianService kind : Complete MainDefault : YesForced : No
Audio #2ID : 3Format : AC-3Format/Info : Audio Coding 3Commercial name : Dolby DigitalCodec ID : A_AC3Duration : 1 h 43 minBit rate mode : ConstantBit rate : 384 kb/sChannel(s) : 6 channelsChannel layout : L R C LFE Ls RsSampling rate : 48.0 kHzFrame rate : 31.250 FPS (1536 SPF)Compression mode : LossyStream size : 284 MiB (2%)Title : JaskierLanguage : RussianService kind : Complete MainDefault : NoForced : No
Audio #3ID : 4Format : AC-3Format/Info : Audio Coding 3Commercial name : Dolby DigitalCodec ID : A_AC3Duration : 1 h 43 minBit rate mode : ConstantBit rate : 384 kb/sChannel(s) : 6 channelsChannel layout : L R C LFE Ls RsSampling rate : 48.0 kHzFrame rate : 31.250 FPS (1536 SPF)Compression mode : LossyStream size : 284 MiB (2%)Title : TVShowsLanguage : RussianService kind : Complete MainDefault : NoForced : No
Audio #4ID : 5Format : E-AC-3Format/Info : Enhanced AC-3Commercial name : Dolby Digital PlusCodec ID : A_EAC3Duration : 1 h 43 minBit rate mode : ConstantBit rate : 384 kb/sChannel(s) : 6 channelsChannel layout : L R C LFE Ls RsSampling rate : 48.0 kHzFrame rate : 31.250 FPS (1536 SPF)Compression mode : LossyStream size : 284 MiB (2%)Title : UkrainianLanguage : UkrainianService kind : Complete MainDefault : NoForced : No
Audio #5ID : 6Format : E-AC-3 JOCFormat/Info : Enhanced AC-3 with Joint Object CodingCommercial name : Dolby Digital Plus with Dolby AtmosCodec ID : A_EAC3Duration : 1 h 43 minBit rate mode : ConstantBit rate : 768 kb/sChannel(s) : 6 channelsChannel layout : L R C LFE Ls RsSampling rate : 48.0 kHzFrame rate : 31.250 FPS (1536 SPF)Compression mode : LossyStream size : 569 MiB (4%)Title : EnglishLanguage : EnglishService kind : Complete MainDefault : NoForced : NoComplexity index : 16Number of dynamic objects : 15Bed channel count : 1 channelBed channel configuration : LFE
Text #1ID : 7Format : UTF-8Codec ID : S_TEXT/UTF8Codec ID/Info : UTF-8 Plain TextDuration : 1 h 32 minBit rate : 8 b/sFrame rate : 0.021 FPSCount of elements : 115Stream size : 5.46 KiB (0%)Title : Russian (Forced)Language : RussianDefault : YesForced : No
Text #2ID : 8Format : UTF-8Codec ID : S_TEXT/UTF8Codec ID/Info : UTF-8 Plain TextDuration : 1 h 42 minBit rate : 75 b/sFrame rate : 0.183 FPSCount of elements : 1129Stream size : 56.9 KiB (0%)Title : Russian (iTunes)Language : RussianDefault : NoForced : No
Text #3ID : 9Format : UTF-8Codec ID : S_TEXT/UTF8Codec ID/Info : UTF-8 Plain TextDuration : 1 h 41 minBit rate : 5 b/sFrame rate : 0.013 FPSCount of elements : 81Stream size : 3.99 KiB (0%)Title : Ukrainian (Forced)Language : UkrainianDefault : NoForced : No
Text #4ID : 10Format : UTF-8Codec ID : S_TEXT/UTF8Codec ID/Info : UTF-8 Plain TextDuration : 1 h 42 minBit rate : 73 b/sFrame rate : 0.183 FPSCount of elements : 1127Stream size : 55.8 KiB (0%)Title : UkrainianLanguage : UkrainianDefault : NoForced : No
Text #5ID : 11Format : UTF-8Codec ID : S_TEXT/UTF8Codec ID/Info : UTF-8 Plain TextDuration : 1 h 32 minBit rate : 4 b/sFrame rate : 0.021 FPSCount of elements : 115Stream size : 3.19 KiB (0%)Title : English (Forced)Language : EnglishDefault : NoForced : No
Text #6ID : 12Format : UTF-8Codec ID : S_TEXT/UTF8Codec ID/Info : UTF-8 Plain TextDuration : 1 h 35 minBit rate : 46 b/sFrame rate : 0.193 FPSCount of elements : 1104Stream size : 32.5 KiB (0%)Title : EnglishLanguage : EnglishDefault : NoForced : No
Text #7ID : 13Format : UTF-8Codec ID : S_TEXT/UTF8Codec ID/Info : UTF-8 Plain TextDuration : 1 h 37 minBit rate : 56 b/sFrame rate : 0.233 FPSCount of elements : 1370Stream size : 40.2 KiB (0%)Title : English (SDH)Language : EnglishDefault : NoForced : No
Text #8ID : 14Format : UTF-8Codec ID : S_TEXT/UTF8Codec ID/Info : UTF-8 Plain TextDuration : 1 h 42 minBit rate : 55 b/sFrame rate : 0.188 FPSCount of elements : 1162Stream size : 42.0 KiB (0%)Title : HebrewLanguage : HebrewDefault : NoForced : No
Menu00:00:00.000 : en:Chapter 0100:06:18.211 : en:Chapter 0200:13:14.627 : en:Chapter 0300:19:05.562 : en:Chapter 0400:26:19.746 : en:Chapter 0500:32:23.902 : en:Chapter 0600:40:19.294 : en:Chapter 0700:46:01.219 : en:Chapter 0800:51:39.641 : en:Chapter 0900:59:03.918 : en:Chapter 1001:05:32.182 : en:Chapter 1101:10:21.763 : en:Chapter 1201:17:01.246 : en:Chapter 1301:25:18.535 : en:Chapter 1401:32:12.907 : en:Chapter 1501:36:45.305 : en:Chapter 16

Скриншоты


Сравнение

Source: The Pope's Exorcist 2023 2160p MA WEB-DL DDP5.1 H.265-CMRG Thanks! - Video, better than Blu-ray
4K WEB MA Vs Blu-ray




Source (4K WEB MA) - HiDt - MTeam (BluRay) - WEB MA 1080








[Profile]  [PM] 
Display posts:    
Reply to topic

Current time is: 25-Jul 05:06

All times are UTC + 2



You cannot post new topics in this forum
You cannot reply to topics in this forum
You cannot edit your posts in this forum
You cannot delete your posts in this forum
You cannot vote in polls in this forum
You cannot attach files in this forum
You cannot download files in this forum