Просто потрясающе / Absolutely Fabulous: The Movie (Мэнди Флетчер / Mandie Fletcher) [2016, Великобритания, США, Комедия, криминал, BDRip] MVO (iTunes) + Original + Subs (rus eng)

Reply to topic
 
Author
Message

Satyr ®

Gender: Unknown

Longevity: 11 years

Posts: 15401

Reputation: 55 [+] [-]

Satyr · Post 08-Feb-2017 10:35

[Quote] 

Просто потрясающе / Absolutely Fabulous: The Movie
Страна: Великобритания, США
Жанр: Комедия, криминал
Год выпуска: 2016
Продолжительность: 01:30:56
Перевод: Профессиональный (Многоголосый закадровый) - (Itunes)
Cубтитры: Русские (форсированные, полные), Английские (полные SDH)
Оригинальная аудиодорожка: Английский
Режиссер: Мэнди Флетчер / Mandie Fletcher
В ролях: Лулу, Гвендолин Кристи, Дженнифер Сондерс, Джоанна Ламли, Джулия Савала, Джейн Хоррокс, Джун Уитфилд, Мо Гаффни, Кристофер Райан
Описание: Эдина и Пэтси все еще источают гламур и блеск живя той красивой жизнью, к которой они так привыкли. Шоппинг, выпивохинг и клаббинг по всему Лондону, и в самых модных его частях. Обвиненные в инциденте на одном из модных показов, они оказываются в центре медийного шторма. Во избежания преследования папарацци они сбегают (попутно забыв деньги) на очень дорогую Французскую Ривьеру, с целью остаться здесь навсегда.
Сэмпл: http://multi-up.com/1139466
Качество видео: BDRip
Исходник: ABSOLUTELY_FABULOUS_THE_MOVIE_REMUX_HDCLUB
Формат видео: AVI
Видео: 720x304 (2.37:1), 23.976 fps, XviD build 65 ~2094 kbps avg, 0.40 bit/pixel
Аудио RUS: 48 kHz, AC3 Dolby Digital, 2/0 (L,R) ch, ~192 kbps
Аудио ENG: 48 kHz, AC3 Dolby Digital, 3/2 (L,C,R,l,r) + LFE ch, ~448 kbps
Формат субтитров: softsub (SRT)


Rip by Ториял для

MediaInfo

Формат : AVI
Формат/Информация : Audio Video Interleave
Размер файла : 1,46 Гбайт
Продолжительность : 1 ч. 30 м.
Общий поток : 2296 Кбит/сек
Программа кодирования : VirtualDubMod 1.5.10.3 | www.virtualdub-fr.org || (build 2550/release)
Библиотека кодирования : VirtualDubMod build 2550/release
Видео
Идентификатор : 0
Формат : MPEG-4 Visual
Профиль формата : Advanced Simple@L5
Параметр BVOP формата : 1
Параметр QPel формата : Нет
Параметр GMC формата : Без точки перехода
Параметр матрицы формата : Выборочная
Идентификатор кодека : XVID
Идентификатор кодека/Подсказка : XviD
Продолжительность : 1 ч. 30 м.
Битрейт : 2095 Кбит/сек
Ширина : 720 пикселей
Высота : 304 пикселя
Соотношение сторон : 2,35:1
Частота кадров : 23,976 (24000/1001) кадра/сек
Цветовое пространство : YUV
Субдискретизация насыщенности : 4:2:0
Битовая глубина : 8 бит
Тип развёртки : Прогрессивная
Метод сжатия : С потерями
Бит/(Пиксели*Кадры) : 0.399
Размер потока : 1,33 Гбайт (91%)
Библиотека кодирования : XviD 65
Аудио
Идентификатор : 1
Формат : AC-3
Формат/Информация : Audio Coding 3
Расширение режима : CM (complete main)
Параметр Endianness формата : Big
Идентификатор кодека : 2000
Продолжительность : 1 ч. 30 м.
Вид битрейта : Постоянный
Битрейт : 192 Кбит/сек
Каналы : 2 канала
Расположение каналов : Front: L R
Частота : 48,0 КГц
Частота кадров : 31,250 кадров/сек (1536 spf)
Битовая глубина : 16 бит
Метод сжатия : С потерями
Размер потока : 125 Мбайт (8%)
Выравнивание : Разделение по промежуткам
Продолжительность промежутка : 42 мс. (1,00 видеокадр)
Время предзагрузки промежутка : 500 мс.

Скриншоты

[/URL]
[Profile]  [PM] 
Display posts:    
Reply to topic

Current time is: 13-Aug 16:21

All times are UTC + 2



You cannot post new topics in this forum
You cannot reply to topics in this forum
You cannot edit your posts in this forum
You cannot delete your posts in this forum
You cannot vote in polls in this forum
You cannot attach files in this forum
You cannot download files in this forum